Поиск

(Free Improvisation) [CD] Grid Mesh (Frank Paul Schubert, Johannes Bauer, Andreas Willers, Willi Kellers) - Live in Madrid - 2013, FLAC (tracks+.cue), lossless

(Free Improvisation) [CD] Grid Mesh (Frank Paul Schubert, Johannes Bauer, Andreas Willers, Willi Kellers) - Live in Madrid - 2013, FLAC (tracks+.cue), lossless
Grid Mesh / Live in Madrid
Жанр: Free Improvisation
Носитель: CD
Страна-производитель диска (релиза): UK
Год издания: 2013
Издатель (лейбл): Leo Records
Номер по каталогу: CD LR 677
Аудиокодек: FLAC (*.flac)
Тип рипа: tracks+.cue
Битрейт аудио: lossless
Продолжительность: 51:31
Источник (релизер): cd
Наличие сканов в содержимом раздачи: нет
Треклист:
1. Part I 17:29
2. Part IIa 19:14
3. Part IIb 14:48
 
Лог создания рипа
Exact Audio Copy V1.0 beta 3 from 29. August 2011
EAC extraction logfile from 24. January 2015, 11:48
Grid Mesh / Live in Madrid
Used drive : ASUS DRW-24F1ST a Adapter: 0 ID: 0
Read mode : Secure
Utilize accurate stream : Yes
Defeat audio cache : Yes
Make use of C2 pointers : No
Read offset correction : 6
Overread into Lead-In and Lead-Out : No
Fill up missing offset samples with silence : Yes
Delete leading and trailing silent blocks : No
Null samples used in CRC calculations : Yes
Used interface : Native Win32 interface for Win NT & 2000
Gap handling : Appended to previous track
Used output format : User Defined Encoder
Selected bitrate : 320 kBit/s
Quality : High
Add ID3 tag : No
Command line compressor : D:\Programs\Exact Audio Copy\Flac\flac.exe
Additional command line options : -V -8 -T "Genre=%genre%" -T "Artist=%artist%" -T "Title=%title%" -T "Album=%albumtitle%" -T "Date=%year%" -T "Tracknumber=%tracknr%" -T "Comment=%comment%" %source%
TOC of the extracted CD
Track | Start | Length | Start sector | End sector
---------------------------------------------------------
1 | 0:00.00 | 17:29.23 | 0 | 78697
2 | 17:29.23 | 19:14.07 | 78698 | 165254
3 | 36:43.30 | 14:48.31 | 165255 | 231885
Track 1
Filename D:\EAC\01 Part I.wav
Pre-gap length 0:00:02.00
Peak level 98.8 %
Extraction speed 5.5 X
Track quality 100.0 %
Test CRC 4F4B7911
Copy CRC 4F4B7911
Copy OK
Track 2
Filename D:\EAC\02 Part IIa.wav
Peak level 98.8 %
Extraction speed 7.2 X
Track quality 100.0 %
Test CRC F6D9E38F
Copy CRC F6D9E38F
Copy OK
Track 3
Filename D:\EAC\03 Part IIb.wav
Peak level 98.9 %
Extraction speed 8.0 X
Track quality 99.9 %
Test CRC 06CD23CC
Copy CRC 06CD23CC
Copy OK
No errors occurred
End of status report
==== Log checksum 664D70C8F5A7D97B6D0282DF4D1C2676FE35DC167CE9BB558DAC730F0BB41922 ====
 
Содержание индексной карты (.CUE)
REM GENRE Jazz
REM DATE 2013
REM DISCID 120C1303
REM COMMENT "ExactAudioCopy v1.0b3"
PERFORMER "Grid Mesh"
TITLE "Live in Madrid"
FILE "01 Part I.wav" WAVE
TRACK 01 AUDIO
TITLE "Part I"
PERFORMER "Grid Mesh"
INDEX 01 00:00:00
FILE "02 Part IIa.wav" WAVE
TRACK 02 AUDIO
TITLE "Part IIa"
PERFORMER "Grid Mesh"
INDEX 01 00:00:00
FILE "03 Part IIb.wav" WAVE
TRACK 03 AUDIO
TITLE "Part IIb"
PERFORMER "Grid Mesh"
INDEX 01 00:00:00
Доп. информация: Recorded live at the Hurta Cordel Festival, La Casa Encendida, Madrid/Spain, Februar 17, 2011
 
Об альбоме (сборнике)
"This live recording forms a rich, highly accomplished, unexpected and multi-dimensional profile of contemporary improvisation. The combination of high level technical abilities and the 'live' setting mean that the precedence of real-time decision-making becomes further informed by the musician/audience relationship. Key to this music's success is the ensemble approach."- Leo Records
"The musicians collaborate in the expansion of extraordinary concepts through their understanding of contemporary jazz language. The result is an astonishing, consummate and resonant contour of modern-day, musical inventiveness and despite the individual, highly accomplished technical skills of the artists, it is also a master-class in ensemble playing."- Kent Cheetham, Jazz Views
 
Состав
Alto Saxophone, Soprano Saxophone – Frank Paul Schubert
Drums, Piano [Remote Piano] – Willi Kellers
Electric Guitar, Effects [Devices] – Andreas Willers
Trombone – Johannes Bauer
08:37
280
Нет комментариев. Ваш будет первым!