Вы используете незарегистрированную версию компонента "Вкладки"!

Поиск

(Free Improvisation) [CD] CBD Trio (Chris Brown, Biggi Vinkeloe, Donald Robinson) - Suspension - 2007, FLAC (image+.cue), lossless

(Free Improvisation) [CD] CBD Trio (Chris Brown, Biggi Vinkeloe, Donald Robinson) - Suspension - 2007, FLAC (image+.cue), lossless
Треклист:
CBD Trio / Suspension
Жанр: Free Improvisation
Носитель: CD
Страна-производитель диска: US
Год издания: 2007
Издатель (лейбл): Rastascan Records
Номер по каталогу: BRD 058
Аудиокодек: FLAC (*.flac)
Тип рипа: image+.cue
Битрейт аудио: lossless
Продолжительность: 54:47
Источник (релизер): CD
Наличие сканов в содержимом раздачи: нет
Треклист:
1 Alap 6:17
2 Crescendo 8:56
3 Shuffle (1) 11:12
4 Don's Song 8:00
5 Outside/Inside 6:33
6 Shuffle (2) 13:48
 
Лог создания рипа
Exact Audio Copy V1.0 beta 2 from 29. April 2011
EAC extraction logfile from 19. June 2014, 12:14
CBD Trio / Suspension
Used drive : Optiarc DVD RW AD-7170A Adapter: 0 ID: 0
Read mode : Secure
Utilize accurate stream : Yes
Defeat audio cache : Yes
Make use of C2 pointers : No
Read offset correction : 48
Overread into Lead-In and Lead-Out : No
Fill up missing offset samples with silence : Yes
Delete leading and trailing silent blocks : No
Null samples used in CRC calculations : Yes
Used interface : Native Win32 interface for Win NT & 2000
Used output format : User Defined Encoder
Selected bitrate : 320 kBit/s
Quality : High
Add ID3 tag : No
Command line compressor : C:\Program Files\Exact Audio Copy\Flac\flac.exe
Additional command line options : -V -8 -T "Date=%year%" -T "Genre=%genre%" %source%
TOC of the extracted CD
Track | Start | Length | Start sector | End sector
---------------------------------------------------------
1 | 0:00.00 | 6:17.08 | 0 | 28282
2 | 6:17.08 | 8:56.11 | 28283 | 68493
3 | 15:13.19 | 11:12.07 | 68494 | 118900
4 | 26:25.26 | 8:00.51 | 118901 | 154951
5 | 34:26.02 | 6:33.02 | 154952 | 184428
6 | 40:59.04 | 13:48.69 | 184429 | 246597
Range status and errors
Selected range
Filename K:\ЕАС\CBD Trio - Suspension.wav
Peak level 95.2 %
Extraction speed 2.0 X
Range quality 100.0 %
Test CRC BAB15AB1
Copy CRC BAB15AB1
Copy OK
No errors occurred
AccurateRip summary
Track 1 not present in database
Track 2 not present in database
Track 3 not present in database
Track 4 not present in database
Track 5 not present in database
Track 6 not present in database
None of the tracks are present in the AccurateRip database
End of status report
==== Log checksum B719C9BA96F74299EA45CA82E4473F98D7497DCA1F70B777D981E906FF7BE631 ====
 
Содержание индексной карты (.CUE)
REM GENRE Jazz
REM DATE 2007
REM DISCID 560CD706
REM COMMENT "ExactAudioCopy v1.0b2"
PERFORMER "CBD Trio"
TITLE "Suspension"
FILE "CBD Trio - Suspension.flac" WAVE
TRACK 01 AUDIO
TITLE "Alap "
PERFORMER "CBD Trio"
ISRC 000000000000
INDEX 01 00:00:00
TRACK 02 AUDIO
TITLE "Crescendo "
PERFORMER "CBD Trio"
ISRC 000000000000
INDEX 00 06:15:08
INDEX 01 06:17:08
TRACK 03 AUDIO
TITLE "Shuffle (1) "
PERFORMER "CBD Trio"
ISRC 000000000000
INDEX 00 15:09:19
INDEX 01 15:13:19
TRACK 04 AUDIO
TITLE "Don's Song"
PERFORMER "CBD Trio"
ISRC 000000000000
INDEX 00 26:21:26
INDEX 01 26:25:26
TRACK 05 AUDIO
TITLE "Outside/Inside"
PERFORMER "CBD Trio"
ISRC 000000000000
INDEX 00 34:22:02
INDEX 01 34:26:02
TRACK 06 AUDIO
TITLE "Shuffle (2) "
PERFORMER "CBD Trio"
ISRC 000000000000
INDEX 00 40:56:04
INDEX 01 40:59:04
Доп. информация: Recorded and mixed at Studio Fabriken, Gothenburg, Sweden, September 18 and 19, 2005
 
Состав
Alto Saxophone, Flute – Biggi Vinkeloe
Drums – Donald Robinson
Piano, Electronics, Photography By – Chris Brown
По всем вопросам пишите личное сообщение пользователю M0p94ok.
02:49
169
Нет комментариев. Ваш будет первым!