Вы используете незарегистрированную версию компонента "Вкладки"!

Поиск

(free improvisation ) [cd] Amir ElSaffar - Inana 2011, FLAC (tracks+.cue), lossless

(free improvisation ) [cd] Amir ElSaffar - Inana 2011, FLAC (tracks+.cue), lossless
Треклист:


Amir ElSaffar - Inana 2011

Жанр: free improvisation
Год выпуска: 2011
Издатель (лейбл):Pi Recordings/ PI41
Формат: FLAC (tracks+.cue)
Битрейт аудио: lossless
Продолжительность 1`05`21
Источник: what.cd, verbatim32

tracks

1 Dumuzi's Dream 9:41
2 Venus, The Evening Star 10:32
3 Inana's Dance (I, II, III) 7:07
4 Inana's Dance (IV) 4:47
5 Lady Of Heaven 2:28
6 Infinite Variety 5:22
7 Journey To The Underworld 15:12
8 Venus, The Morning Star 4:16
9 Al-Badia 5:52


 
.log
Exact Audio Copy V1.0 beta 3 from 29. August 2011
EAC extraction logfile from 20. February 2014, 0:25
Amir ElSaffar / Inana
Used drive : HL-DT-STBD-RE BH16NS40 Adapter: 0 ID: 0
Read mode : Secure
Utilize accurate stream : Yes
Defeat audio cache : Yes
Make use of C2 pointers : No
Read offset correction : 6
Overread into Lead-In and Lead-Out : No
Fill up missing offset samples with silence : Yes
Delete leading and trailing silent blocks : No
Null samples used in CRC calculations : Yes
Used interface : Native Win32 interface for Win NT & 2000
Gap handling : Appended to previous track
Used output format : User Defined Encoder
Selected bitrate : 1024 kBit/s
Quality : High
Add ID3 tag : No
Command line compressor : B:\Programmes\Exact Audio Copy\FLAC\FLAC.EXE
Additional command line options : -8 -V -T "ARTIST=%artist%" -T "TITLE=%title%" -T "ALBUM=%albumtitle%" -T "DATE=%year%" -T "TRACKNUMBER=%tracknr%" -T "GENRE=%genre%" -T "PERFORMER=%albuminterpret%" -T "COMPOSER=%composer%" %haslyrics%--tag-from-file=LYRICS="%lyricsfile%"%haslyrics% -T "ALBUMARTIST=%albumartist%" -T "DISCNUMBER=%cdnumber%" -T "TOTALDISCS=%totalcds%" -T "TOTALTRACKS=%numtracks%" -T "COMMENT=%comment%" %source% -o %dest%
TOC of the extracted CD
Track | Start | Length | Start sector | End sector
---------------------------------------------------------
1 | 0:00.00 | 9:41.67 | 0 | 43641
2 | 9:41.67 | 10:32.20 | 43642 | 91061
3 | 20:14.12 | 7:07.12 | 91062 | 123098
4 | 27:21.24 | 4:47.42 | 123099 | 144665
5 | 32:08.66 | 2:29.00 | 144666 | 155840
6 | 34:37.66 | 5:22.05 | 155841 | 179995
7 | 39:59.71 | 15:12.47 | 179996 | 248442
8 | 55:12.43 | 4:16.21 | 248443 | 267663
9 | 59:28.64 | 5:52.44 | 267664 | 294107
Track 1
Filename A:\Music\What.cd\Ripped\01.Dumuzi's dream.wav
Pre-gap length 0:00:02.00
Peak level 96.6 %
Extraction speed 2.9 X
Track quality 100.0 %
Test CRC 3C451D55
Copy CRC 3C451D55
Accurately ripped (confidence 1) [3934C1E3] (AR v2)
Copy OK
Track 2
Filename A:\Music\What.cd\Ripped\02.Venus, the evening star.wav
Pre-gap length 0:00:01.98
Peak level 96.6 %
Extraction speed 1.5 X
Track quality 100.0 %
Test CRC 7EA1460A
Copy CRC 7EA1460A
Accurately ripped (confidence 1) [6EBA3E37] (AR v2)
Copy OK
Track 3
Filename A:\Music\What.cd\Ripped\03.Inana's dance (I, II, III).wav
Pre-gap length 0:00:01.76
Peak level 96.6 %
Extraction speed 1.7 X
Track quality 100.0 %
Test CRC 05CE361A
Copy CRC 05CE361A
Accurately ripped (confidence 1) [27403D9D] (AR v2)
Copy OK
Track 4
Filename A:\Music\What.cd\Ripped\04.Inana's dance (IV).wav
Peak level 96.6 %
Extraction speed 1.7 X
Track quality 100.0 %
Test CRC 5B4BA15C
Copy CRC 5B4BA15C
Accurately ripped (confidence 1) [4AD6CA70] (AR v2)
Copy OK
Track 5
Filename A:\Music\What.cd\Ripped\05.Lady of heaven.wav
Pre-gap length 0:00:01.02
Peak level 96.6 %
Extraction speed 1.6 X
Track quality 100.0 %
Test CRC B5396E1D
Copy CRC B5396E1D
Accurately ripped (confidence 1) [384EDDA0] (AR v2)
Copy OK
Track 6
Filename A:\Music\What.cd\Ripped\06.Infinite variety.wav
Pre-gap length 0:00:00.20
Peak level 96.6 %
Extraction speed 1.9 X
Track quality 100.0 %
Test CRC E92559BA
Copy CRC E92559BA
Accurately ripped (confidence 1) [849AFAB0] (AR v2)
Copy OK
Track 7
Filename A:\Music\What.cd\Ripped\07.Journey to the underworld.wav
Pre-gap length 0:00:02.36
Peak level 96.6 %
Extraction speed 2.1 X
Track quality 99.9 %
Test CRC 72F0FEA7
Copy CRC 72F0FEA7
Accurately ripped (confidence 1) [60D781D7] (AR v2)
Copy OK
Track 8
Filename A:\Music\What.cd\Ripped\08.Venus, the morning star.wav
Pre-gap length 0:00:00.69
Peak level 90.5 %
Extraction speed 1.9 X
Track quality 99.9 %
Test CRC 14DBA24D
Copy CRC 14DBA24D
Accurately ripped (confidence 1) [18953C9B] (AR v2)
Copy OK
Track 9
Filename A:\Music\What.cd\Ripped\09.Al-Badia.wav
Pre-gap length 0:00:10.08
Peak level 96.6 %
Extraction speed 2.1 X
Track quality 99.9 %
Test CRC 231F6D2B
Copy CRC 231F6D2B
Accurately ripped (confidence 1) [8FD74269] (AR v2)
Copy OK
All tracks accurately ripped
No errors occurred
End of status report
---- CUETools DB Plugin V2.1.3
[CTDB TOCID: SgML0V9fWHZf2epD7QngT79kEIc-] found, Submit result: SgML0V9fWHZf2epD7QngT79kEIc- has been confirmed
[e970f81a] (2/2) Accurately ripped
==== Log checksum 08ED2DDA90F2B3498921FF66E7A025123213BF8E14608310B040C52731CAD66E ====
 
.cue
REM GENRE Jazz
REM DATE 2011
REM DISCID 6A0F5109
REM COMMENT "ExactAudioCopy v1.0b3"
PERFORMER "Amir ElSaffar"
TITLE "Inana"
FILE "01.Dumuzi's dream.wav" WAVE
TRACK 01 AUDIO
TITLE "Dumuzi's dream"
PERFORMER "Amir ElSaffar"
INDEX 01 00:00:00
TRACK 02 AUDIO
TITLE "Venus, the evening star"
PERFORMER "Amir ElSaffar"
INDEX 00 09:39:68
FILE "02.Venus, the evening star.wav" WAVE
INDEX 01 00:00:00
TRACK 03 AUDIO
TITLE "Inana's dance (I, II, III)"
PERFORMER "Amir ElSaffar"
INDEX 00 10:30:38
FILE "03.Inana's dance (I, II, III).wav" WAVE
INDEX 01 00:00:00
FILE "04.Inana's dance (IV).wav" WAVE
TRACK 04 AUDIO
TITLE "Inana's dance (IV)"
PERFORMER "Amir ElSaffar"
INDEX 01 00:00:00
TRACK 05 AUDIO
TITLE "Lady of heaven"
PERFORMER "Amir ElSaffar"
INDEX 00 04:46:40
FILE "05.Lady of heaven.wav" WAVE
INDEX 01 00:00:00
TRACK 06 AUDIO
TITLE "Infinite variety"
PERFORMER "Amir ElSaffar"
INDEX 00 02:28:60
FILE "06.Infinite variety.wav" WAVE
INDEX 01 00:00:00
TRACK 07 AUDIO
TITLE "Journey to the underworld"
PERFORMER "Amir ElSaffar"
INDEX 00 05:19:53
FILE "07.Journey to the underworld.wav" WAVE
INDEX 01 00:00:00
TRACK 08 AUDIO
TITLE "Venus, the morning star"
PERFORMER "Amir ElSaffar"
INDEX 00 15:11:70
FILE "08.Venus, the morning star.wav" WAVE
INDEX 01 00:00:00
TRACK 09 AUDIO
TITLE "Al-Badia"
PERFORMER "Amir ElSaffar"
INDEX 00 04:06:15
FILE "09.Al-Badia.wav" WAVE
INDEX 01 00:00:00

http://www.discogs.com/Amir-ElSaffar-Inana/release/3149874
другие релизы
По всем вопросам пишите личное сообщение пользователю M0p94ok.
02:34
170
Нет комментариев. Ваш будет первым!