Вы используете незарегистрированную версию компонента "Вкладки"!

Поиск

(Free Improvisation) Bertrand Gauguet, Franz Hautzinger, Thomas Lehn - Close Up - 2009, FLAC (tracks+.cue) lossless

(Free Improvisation) Bertrand Gauguet, Franz Hautzinger, Thomas Lehn - Close Up - 2009, FLAC (tracks+.cue) lossless
Треклист:
Bertrand Gauguet, Franz Hautzinger, Thomas Lehn / Close Up
Жанр: Free Improvisation
Страна-производитель диска: Польша
Год издания диска: 2009
Издатель (лейбл): Monotype Records
Номер по каталогу: mono024
Страна: Франция, Австрия, Германия
Аудио кодек: FLAC (*.flac)
Тип рипа: tracks+.cue
Битрейт аудио: lossless
Продолжительность: 56:07
Источник (релизер): вот.сиди (microtonne)
Наличие сканов в содержимом раздачи: нет
Треклист:
1 Close Up 01 11:54
2 Close Up 02 17:55
3 Close Up 03 26:17
Recorded at Theatre du Saulcy, Metz (Fr) January 26, 2007, and at Instants Chavirés, Montreuil (Fr) February 13, 2008.
 
Лог создания рипа
Exact Audio Copy V0.99 prebeta 5 from 4. May 2009
EAC extraction logfile from 12. May 2011, 20:47
Bertrand Gauguet, Franz Hautzinger, Thomas Lehn / Close Up
Used drive : _NEC DVD_RW ND-3520A Adapter: 1 ID: 1
Read mode : Secure
Utilize accurate stream : Yes
Defeat audio cache : Yes
Make use of C2 pointers : No
Read offset correction : 48
Overread into Lead-In and Lead-Out : No
Fill up missing offset samples with silence : Yes
Delete leading and trailing silent blocks : No
Null samples used in CRC calculations : Yes
Used interface : Native Win32 interface for Win NT & 2000
Gap handling : Appended to previous track
Used output format : User Defined Encoder
Selected bitrate : 768 kBit/s
Quality : High
Add ID3 tag : No
Command line compressor : C:\Program Files\Exact Audio Copy\FLAC\FLAC.EXE
Additional command line options : -6 -V -T "ARTIST=%a" -T "TITLE=%t" -T "ALBUM=%g" -T "DATE=%y" -T "TRACKNUMBER=%n" -T "GENRE=%m" -T "COMMENT=%e" %s -o %d
TOC of the extracted CD
Track | Start | Length | Start sector | End sector
---------------------------------------------------------
1 | 0:00.00 | 11:54.37 | 0 | 53586
2 | 11:54.37 | 17:55.11 | 53587 | 134222
3 | 29:49.48 | 26:17.11 | 134223 | 252508
Track 1
Filename C:\Documents and Settings\User\Рабочий стол\Bertrand Gauguet, Franz Hautzinger, Thomas Lehn - Close Up_2009 [FLAC]\Track01.wav
Pre-gap length 0:00:02.00
Peak level 97.7 %
Track quality 100.0 %
Copy CRC 5B378A2C
Accurately ripped (confidence 1) [AA2F12A4]
Copy OK
Track 2
Filename C:\Documents and Settings\User\Рабочий стол\Bertrand Gauguet, Franz Hautzinger, Thomas Lehn - Close Up_2009 [FLAC]\Track02.wav
Peak level 97.7 %
Track quality 100.0 %
Copy CRC 41677DD8
Accurately ripped (confidence 1) [E465E424]
Copy OK
Track 3
Filename C:\Documents and Settings\User\Рабочий стол\Bertrand Gauguet, Franz Hautzinger, Thomas Lehn - Close Up_2009 [FLAC]\Track03.wav
Peak level 97.7 %
Track quality 100.0 %
Copy CRC F0455C08
Accurately ripped (confidence 1) [CC03A34B]
Copy OK
All tracks accurately ripped
No errors occurred
End of status report
 
Содержание индексной карты (.CUE)
REM DATE 2009
REM DISCID 220D2603
REM COMMENT "ExactAudioCopy v0.99pb5"
PERFORMER "Bertrand Gauguet, Franz Hautzinger, Thomas Lehn"
TITLE "Close Up"
FILE "Track01.wav" WAVE
TRACK 01 AUDIO
TITLE "Track01"
PERFORMER "Bertrand Gauguet, Franz Hautzinger, Thomas Lehn"
FLAGS DCP
INDEX 01 00:00:00
FILE "Track02.wav" WAVE
TRACK 02 AUDIO
TITLE "Track02"
PERFORMER "Bertrand Gauguet, Franz Hautzinger, Thomas Lehn"
FLAGS DCP
INDEX 01 00:00:00
FILE "Track03.wav" WAVE
TRACK 03 AUDIO
TITLE "Track03"
PERFORMER "Bertrand Gauguet, Franz Hautzinger, Thomas Lehn"
FLAGS DCP
INDEX 01 00:00:00
 
Лог проверки качества
AUDIOCHECKER v2.0 beta (build 457) - by Dester - opdester@freemail.hu
~~~~~~~~~~~~~~~~~~~~~~~~~~~~~~~~~~
-=== DO NOT EDIT THIS FILE! ===-
Path: ...\Bertrand Gauguet, Franz Hautzinger, Thomas Lehn - Close Up_2009 [FLAC]
1 -=- Track01.flac -=- CDDA (100%)
2 -=- Track02.flac -=- CDDA (100%)
3 -=- Track03.flac -=- CDDA (100%)
Summary 100,00% CDDA
161889748
 
Состав
Bertrand Gauguet - Alto & Soprano Saxophones
Franz Hautzinger - Quartertone Trumpet, Electronic Devices
Thomas Lehn - Analogue Synthesizer
По всем вопросам пишите личное сообщение пользователю M0p94ok.
11:49
171
Нет комментариев. Ваш будет первым!