Поиск

(Free Improvisation, Avantgarde, Experimental) [CD] Ron Anderson / Robert L. Pepper / David Tamura / Philippe Petit - Closed Encounters Of The 4 Minds - 2012, FLAC (tracks+.cue), lossless

(Free Improvisation, Avantgarde, Experimental) [CD] Ron Anderson / Robert L. Pepper / David Tamura / Philippe Petit - Closed Encounters Of The 4 Minds - 2012, FLAC (tracks+.cue), lossless
Ron Anderson / Robert L. Pepper / David Tamura / Philippe Petit / Closed Encounters Of The 4 Minds
Жанр: Free Improvisation, Avantgarde, Experimental
Носитель: CD
Страна-производитель диска (релиза): USA
Год издания: 2012
Издатель (лейбл): Public Eyesore
Номер по каталогу: pe116
Аудиокодек: FLAC (*.flac)
Тип рипа: tracks+.cue
Битрейт аудио: lossless
Продолжительность: 48:16
Источник (релизер): iPooh27
Наличие сканов в содержимом раздачи: нет
Треклист:
1. Untitled
2. Untitled
3. Untitled
4. Untitled
5. Untitled
6. Untitled
7. Untitled
8. Untitled
 
О релизе
Electric Guitar – Ron Anderson
Electric Psalterion – Philippe Petit
Electric Violin – Philippe Petit, Robert L. Pepper
Electronics – Philippe Petit
Korg Ms 2000 – Robert L. Pepper
Saxophone – David Tamura
Turntables – Philippe Petit
Recorded live in one take by Martin Bisi in New York on November 23, 2010.
 
Отчёт EAC
Exact Audio Copy V1.3 from 2. September 2016
EAC extraction logfile from 11. July 2017, 20:01
Ron Anderson, Robert L. Pepper, David Tamura, Philippe Petit / Closed Encounters of the 4 Minds
Used drive : ATAPI iHAS122 F Adapter: 1 ID: 0
Read mode : Secure
Utilize accurate stream : Yes
Defeat audio cache : Yes
Make use of C2 pointers : No
Read offset correction : 6
Overread into Lead-In and Lead-Out : No
Fill up missing offset samples with silence : Yes
Delete leading and trailing silent blocks : No
Null samples used in CRC calculations : Yes
Used interface : Native Win32 interface for Win NT & 2000
Gap handling : Appended to previous track
Used output format : User Defined Encoder
Selected bitrate : 128 kBit/s
Quality : High
Add ID3 tag : No
Command line compressor : C:\Program Files (x86)\Exact Audio Copy\Flac\flac.exe
Additional command line options : -V -8 -T "Genre=%genre%" -T "Artist=%artist%" -T "Title=%title%" -T "Album=%albumtitle%" -T "Date=%year%" -T "Tracknumber=%tracknr%" -T "Comment=%comment%" %source%
TOC of the extracted CD
Track | Start | Length | Start sector | End sector
---------------------------------------------------------
1 | 0:00.00 | 3:07.35 | 0 | 14059
2 | 3:07.35 | 7:51.06 | 14060 | 49390
3 | 10:58.41 | 1:20.70 | 49391 | 55460
4 | 12:19.36 | 4:33.13 | 55461 | 75948
5 | 16:52.49 | 7:31.18 | 75949 | 109791
6 | 24:23.67 | 5:48.17 | 109792 | 135908
7 | 30:12.09 | 7:24.52 | 135909 | 169260
8 | 37:36.61 | 10:39.10 | 169261 | 217195
Track 1
Filename F:\MyCD-iPooh27\01 - Untitled.wav
Pre-gap length 0:00:02.00
Peak level 94.9 %
Extraction speed 5.2 X
Track quality 100.0 %
Test CRC 7DC29808
Copy CRC 7DC29808
Track not present in AccurateRip database
Copy OK
Track 2
Filename F:\MyCD-iPooh27\02 - Untitled.wav
Peak level 96.9 %
Extraction speed 6.2 X
Track quality 99.9 %
Test CRC DA6435EF
Copy CRC DA6435EF
Track not present in AccurateRip database
Copy OK
Track 3
Filename F:\MyCD-iPooh27\03 - Untitled.wav
Peak level 93.4 %
Extraction speed 5.3 X
Track quality 100.0 %
Test CRC 7BA1857F
Copy CRC 7BA1857F
Track not present in AccurateRip database
Copy OK
Track 4
Filename F:\MyCD-iPooh27\04 - Untitled.wav
Peak level 92.0 %
Extraction speed 7.2 X
Track quality 100.0 %
Test CRC AD625CF8
Copy CRC AD625CF8
Track not present in AccurateRip database
Copy OK
Track 5
Filename F:\MyCD-iPooh27\05 - Untitled.wav
Peak level 89.2 %
Extraction speed 8.2 X
Track quality 100.0 %
Test CRC 71B2E4F7
Copy CRC 71B2E4F7
Track not present in AccurateRip database
Copy OK
Track 6
Filename F:\MyCD-iPooh27\06 - Untitled.wav
Peak level 94.8 %
Extraction speed 8.0 X
Track quality 99.9 %
Test CRC 9E0E7EE9
Copy CRC 9E0E7EE9
Track not present in AccurateRip database
Copy OK
Track 7
Filename F:\MyCD-iPooh27\07 - Untitled.wav
Peak level 95.2 %
Extraction speed 9.5 X
Track quality 100.0 %
Test CRC 0814FB9B
Copy CRC 0814FB9B
Track not present in AccurateRip database
Copy OK
Track 8
Filename F:\MyCD-iPooh27\08 - Untitled.wav
Peak level 98.3 %
Extraction speed 10.5 X
Track quality 100.0 %
Test CRC F3572C53
Copy CRC F3572C53
Track not present in AccurateRip database
Copy OK
None of the tracks are present in the AccurateRip database
No errors occurred
End of status report
---- CUETools DB Plugin V2.1.6
[CTDB TOCID: QKUivqJzE5vepWUzCOQoZtJM.jw-] found
Submit result: QKUivqJzE5vepWUzCOQoZtJM.jw- has been confirmed
Track | CTDB Status
1 | (1/1) Accurately ripped
2 | (1/1) Accurately ripped
3 | (1/1) Accurately ripped
4 | (1/1) Accurately ripped
5 | (1/1) Accurately ripped
6 | (1/1) Accurately ripped
7 | (1/1) Accurately ripped
8 | (1/1) Accurately ripped
==== Log checksum 54924A57EB6232CF6AA146A5E677D86D131C565645506554272604614761B6E7 ====
 
Содержание индексной карты (.CUE)
REM DATE 2012
REM DISCID 610B4F08
REM COMMENT "ExactAudioCopy v1.3"
PERFORMER "Ron Anderson, Robert L. Pepper, David Tamura, Philippe Petit"
TITLE "Closed Encounters of the 4 Minds"
REM COMPOSER ""
FILE "01 - Untitled.wav" WAVE
TRACK 01 AUDIO
TITLE "Untitled"
PERFORMER "Ron Anderson, Robert L. Pepper, David Tamura, Philippe Petit"
REM COMPOSER ""
INDEX 01 00:00:00
FILE "02 - Untitled.wav" WAVE
TRACK 02 AUDIO
TITLE "Untitled"
PERFORMER "Ron Anderson, Robert L. Pepper, David Tamura, Philippe Petit"
REM COMPOSER ""
INDEX 01 00:00:00
FILE "03 - Untitled.wav" WAVE
TRACK 03 AUDIO
TITLE "Untitled"
PERFORMER "Ron Anderson, Robert L. Pepper, David Tamura, Philippe Petit"
REM COMPOSER ""
INDEX 01 00:00:00
FILE "04 - Untitled.wav" WAVE
TRACK 04 AUDIO
TITLE "Untitled"
PERFORMER "Ron Anderson, Robert L. Pepper, David Tamura, Philippe Petit"
REM COMPOSER ""
INDEX 01 00:00:00
FILE "05 - Untitled.wav" WAVE
TRACK 05 AUDIO
TITLE "Untitled"
PERFORMER "Ron Anderson, Robert L. Pepper, David Tamura, Philippe Petit"
REM COMPOSER ""
INDEX 01 00:00:00
FILE "06 - Untitled.wav" WAVE
TRACK 06 AUDIO
TITLE "Untitled"
PERFORMER "Ron Anderson, Robert L. Pepper, David Tamura, Philippe Petit"
REM COMPOSER ""
INDEX 01 00:00:00
FILE "07 - Untitled.wav" WAVE
TRACK 07 AUDIO
TITLE "Untitled"
PERFORMER "Ron Anderson, Robert L. Pepper, David Tamura, Philippe Petit"
REM COMPOSER ""
INDEX 01 00:00:00
FILE "08 - Untitled.wav" WAVE
TRACK 08 AUDIO
TITLE "Untitled"
PERFORMER "Ron Anderson, Robert L. Pepper, David Tamura, Philippe Petit"
REM COMPOSER ""
INDEX 01 00:00:00
01:46
255
Нет комментариев. Ваш будет первым!