Вы используете незарегистрированную версию компонента "Вкладки"!

Поиск

(Free Improvisation, Avant-Garde) Plunge with Bobo Stenson - Origo - 2009, FLAC (image+.cue), lossless

Треклист:
Plunge with Bobo Stenson - Origo
Жанр: Free Improvisation, Avant-Garde
Год выпуска диска: 2009
Производитель диска: Kopasetic Productions KOPACD 025
Аудио кодек: FLAC
Тип рипа: image+.cue
Битрейт аудио: lossless
Продолжительность: 57:08
Трэклист:
1. Alea Iacta Est
2. Clement
3. Brief Excursion
4. Origo
5. Giordaniesque
6. Metamorphing
7. Wee Farewell
Recorded December 11th 2008 at Gula Studion, Malmö by David Carlsson. Mixed and mastered by David Carlsson at Château Burlesque, Malmö. Produced by Plunge & Bobo Stenson
Andreas Andersson – saxophones
Bobo Stenson – piano
Mattias Hjorth – double bass
Peter Nilsson – drums
 
allaboutjazz.com
напомнило мне чуть-чуть L.Vintskevich & N.Vintskevich "Пять песен".
Доп. информация:
 
EAC extraction logfile
Exact Audio Copy V0.99 prebeta 5 from 4. May 2009
EAC extraction logfile from 8. November 2009, 18:56
Plunge with Bobo Stenson / Origo
Used drive : Adapter: 0 ID: 0
Read mode : Secure
Utilize accurate stream : Yes
Defeat audio cache : No
Make use of C2 pointers : Yes
Read offset correction : 6
Overread into Lead-In and Lead-Out : No
Fill up missing offset samples with silence : Yes
Delete leading and trailing silent blocks : No
Null samples used in CRC calculations : No
Used interface : Native Win32 interface for Win NT & 2000
Used output format : User Defined Encoder
Selected bitrate : 1024 kBit/s
Quality : High
Add ID3 tag : Yes
Command line compressor : C:\Program Files\Exact Audio Copy\FLAC\FLAC.EXE
Additional command line options : -6 -V -T "ARTIST=%a" -T "TITLE=%t" -T "ALBUM=%g" -T "DATE=%y" -T "TRACKNUMBER=%n" -T "GENRE=%m" -T "COMMENT=%e" %s -o %d
TOC of the extracted CD
Track | Start | Length | Start sector | End sector
---------------------------------------------------------
1 | 0:00.00 | 9:22.39 | 0 | 42188
2 | 9:22.39 | 6:26.41 | 42189 | 71179
3 | 15:49.05 | 4:10.23 | 71180 | 89952
4 | 19:59.28 | 9:05.42 | 89953 | 130869
5 | 29:04.70 | 3:22.35 | 130870 | 146054
6 | 32:27.30 | 19:25.50 | 146055 | 233479
7 | 51:53.05 | 5:18.50 | 233480 | 257379
Range status and errors
Selected range
Filename :\0\Plunge with Bobo Stenson - Origo.wav
Peak level 100.0 %
Range quality 100.0 %
Copy CRC 6072B1E7
Copy OK
No errors occurred
AccurateRip summary
Track 1 not present in database
Track 2 not present in database
Track 3 not present in database
Track 4 not present in database
Track 5 not present in database
Track 6 not present in database
Track 7 not present in database
None of the tracks are present in the AccurateRip database
End of status report
Any questions -> support@pro-jazz.com. По всем вопросам пишите -> support@pro-jazz.com
16:36
221
Нет комментариев. Ваш будет первым!