Поиск

(Free Improvisation, Avant-Garde, Lo-Fi) Eugene Chadbourne - Worms With Strings - 1999, FLAC (tracks+.cue), lossless

Треклист:
Eugene Chadbourne / Worms With Strings
Жанр: Free Improvisation, Avant-Garde, Lo-Fi
Страна-производитель диска: UK
Год издания: 1999
Издатель (лейбл): Leo Records
Номер по каталогу: CD LR 264
Страна: US
Аудиокодек: FLAC (*.flac)
Тип рипа: tracks+.cue
Битрейт аудио: lossless
Продолжительность: 66:51
Источник (релизер): свой фирменный диск
Наличие сканов в содержимом раздачи: нет
Треклист:
1. Dragonfly / Trichinela Spiralis / Prelude To Wild Mountain Thyme / Las Gaviotas / Viva La West Side
2. Loa Loa
3. Strongyloides Stercoralis
4. Wucheria Bancrofti / Post Power Mower Grasshopper
5. Song For My Ant Lion
6. Ancyclostoma Brazilense
7. Necatur Americanus / Ancyclostoma Diodinae
8. The Waterstriders
9. Enroachment
10. Prelude To Gromphado / Gromphado
 
Лог создания рипа
Exact Audio Copy V1.0 beta 3 from 29. August 2011
EAC extraction logfile from 10. January 2013, 17:52
Eugene Chadbourne / Worms With Strings
Used drive : PIONEER DVD-RW DVR-115D Adapter: 0 ID: 0
Read mode : Secure
Utilize accurate stream : Yes
Defeat audio cache : Yes
Make use of C2 pointers : No
Read offset correction : 48
Overread into Lead-In and Lead-Out : No
Fill up missing offset samples with silence : Yes
Delete leading and trailing silent blocks : No
Null samples used in CRC calculations : Yes
Used interface : Installed external ASPI interface
Gap handling : Appended to previous track
Used output format : User Defined Encoder
Selected bitrate : 896 kBit/s
Quality : High
Add ID3 tag : No
Command line compressor : C:\Program Files\Exact Audio Copy\FLAC\FLAC.EXE
Additional command line options : -6 -V -T "ARTIST=%artist%" -T "TITLE=%title%" -T "ALBUM=%albumtitle%" -T "DATE=%year%" -T "TRACKNUMBER=%tracknr%" -T "GENRE=%genre%" -T "COMMENT=%comment%" -T "BAND=%albuminterpret%" -T "COMPOSER=%composer%" %haslyrics%--tag-from-file=LYRICS="%lyricsfile%"%haslyrics% -T "DISCNUMBER=%cdnumber%" -T "TOTALDISCS=%totalcds%" -T "TOTALTRACKS=%numtracks%" %hascover%--picture="%coverfile%"%hascover% %source% -o %dest%
TOC of the extracted CD
Track | Start | Length | Start sector | End sector
---------------------------------------------------------
1 | 0:00.00 | 13:13.15 | 0 | 59489
2 | 13:13.15 | 1:00.45 | 59490 | 64034
3 | 14:13.60 | 2:32.15 | 64035 | 75449
4 | 16:46.00 | 7:13.65 | 75450 | 107989
5 | 23:59.65 | 4:07.35 | 107990 | 126549
6 | 28:07.25 | 0:52.52 | 126550 | 130501
7 | 29:00.02 | 1:19.60 | 130502 | 136486
8 | 30:19.62 | 8:42.25 | 136487 | 175661
9 | 39:02.12 | 16:20.03 | 175662 | 249164
10 | 55:22.15 | 11:29.02 | 249165 | 300841
Track 1
Filename D:\zzz\01 - Dragonfly,Trichinela Spiralis,Prelude to Wild Mountain Thyme,Los Gaviotis,Viva La West Side.wav
Pre-gap length 0:00:02.00
Peak level 89.5 %
Extraction speed 5.7 X
Track quality 100.0 %
Test CRC B7F0AE2C
Copy CRC B7F0AE2C
Track not present in AccurateRip database
Copy OK
Track 2
Filename D:\zzz\02 - Loa Loa.wav
Peak level 53.3 %
Extraction speed 4.2 X
Track quality 100.0 %
Test CRC 4372134F
Copy CRC 4372134F
Track not present in AccurateRip database
Copy OK
Track 3
Filename D:\zzz\03 - Strongyloides Stercoralis.wav
Peak level 50.8 %
Extraction speed 5.6 X
Track quality 100.0 %
Test CRC 5A080BC4
Copy CRC 5A080BC4
Track not present in AccurateRip database
Copy OK
Track 4
Filename D:\zzz\04 - Wucheria Bancrofti,Post Power Mower Grasshopper.wav
Peak level 64.8 %
Extraction speed 6.8 X
Track quality 100.0 %
Test CRC 23491950
Copy CRC 23491950
Track not present in AccurateRip database
Copy OK
Track 5
Filename D:\zzz\05 - Song for my Ant Lion.wav
Peak level 61.8 %
Extraction speed 6.8 X
Track quality 100.0 %
Test CRC B91D0C48
Copy CRC B91D0C48
Track not present in AccurateRip database
Copy OK
Track 6
Filename D:\zzz\06 - Ancyclostoma Brazilense.wav
Peak level 43.2 %
Extraction speed 4.8 X
Track quality 100.0 %
Test CRC 90817CE7
Copy CRC 90817CE7
Track not present in AccurateRip database
Copy OK
Track 7
Filename D:\zzz\07 - Necatur Americanus,Ancyclostoma Diodinae.wav
Peak level 58.0 %
Extraction speed 5.6 X
Track quality 100.0 %
Test CRC 58BAA26D
Copy CRC 58BAA26D
Track not present in AccurateRip database
Copy OK
Track 8
Filename D:\zzz\08 - The Waterstriders.wav
Peak level 83.1 %
Extraction speed 8.0 X
Track quality 100.0 %
Test CRC 1BA9E7FD
Copy CRC 1BA9E7FD
Track not present in AccurateRip database
Copy OK
Track 9
Filename D:\zzz\09 - Encroachment.wav
Peak level 87.2 %
Extraction speed 8.7 X
Track quality 99.9 %
Test CRC 13DFB7FA
Copy CRC 13DFB7FA
Track not present in AccurateRip database
Copy OK
Track 10
Filename D:\zzz\10 - Prelude to Gromphado,Gromphado.wav
Peak level 96.2 %
Extraction speed 9.6 X
Track quality 100.0 %
Test CRC 37598757
Copy CRC 37598757
Track not present in AccurateRip database
Copy OK
None of the tracks are present in the AccurateRip database
No errors occurred
End of status report
==== Log checksum 89A46BC1A09EECB361720BDE1EE1AFF48F73BEEE9891CDF393C561735EC7ADE7 ====
 
Содержание индексной карты (.CUE)
REM GENRE Lo-Fi
REM DATE 1999
REM DISCID 870FAB0A
REM COMMENT "ExactAudioCopy v1.0b3"
PERFORMER "Eugene Chadbourne"
TITLE "Worms With Strings"
FILE "01 - Dragonfly,Trichinela Spiralis,Prelude to Wild Mountain Thyme,Los Gaviotis,Viva La West Side.wav" WAVE
TRACK 01 AUDIO
TITLE "Dragonfly/Trichinela Spiralis/Prelude to Wild Mountain Thyme/Los Gaviotis/Viv..."
PERFORMER "Eugene Chadbourne"
INDEX 01 00:00:00
FILE "02 - Loa Loa.wav" WAVE
TRACK 02 AUDIO
TITLE "Loa Loa"
PERFORMER "Eugene Chadbourne"
INDEX 01 00:00:00
FILE "03 - Strongyloides Stercoralis.wav" WAVE
TRACK 03 AUDIO
TITLE "Strongyloides Stercoralis"
PERFORMER "Eugene Chadbourne"
INDEX 01 00:00:00
FILE "04 - Wucheria Bancrofti,Post Power Mower Grasshopper.wav" WAVE
TRACK 04 AUDIO
TITLE "Wucheria Bancrofti/Post Power Mower Grasshopper"
PERFORMER "Eugene Chadbourne"
INDEX 01 00:00:00
FILE "05 - Song for my Ant Lion.wav" WAVE
TRACK 05 AUDIO
TITLE "Song for my Ant Lion"
PERFORMER "Eugene Chadbourne"
INDEX 01 00:00:00
FILE "06 - Ancyclostoma Brazilense.wav" WAVE
TRACK 06 AUDIO
TITLE "Ancyclostoma Brazilense"
PERFORMER "Eugene Chadbourne"
INDEX 01 00:00:00
FILE "07 - Necatur Americanus,Ancyclostoma Diodinae.wav" WAVE
TRACK 07 AUDIO
TITLE "Necatur Americanus/Ancyclostoma Diodinae"
PERFORMER "Eugene Chadbourne"
INDEX 01 00:00:00
FILE "08 - The Waterstriders.wav" WAVE
TRACK 08 AUDIO
TITLE "The Waterstriders"
PERFORMER "Eugene Chadbourne"
INDEX 01 00:00:00
FILE "09 - Encroachment.wav" WAVE
TRACK 09 AUDIO
TITLE "Encroachment"
PERFORMER "Eugene Chadbourne"
INDEX 01 00:00:00
FILE "10 - Prelude to Gromphado,Gromphado.wav" WAVE
TRACK 10 AUDIO
TITLE "Prelude to Gromphado/Gromphado"
PERFORMER "Eugene Chadbourne"
INDEX 01 00:00:00
 
Лог проверки качества
d:\>d:\aucdtect -d/-m0 d:\zzz\*.wav
auCDtect: CD records authenticity detector, version 0.8.2
Copyright (c) 2004 Oleg Berngardt. All rights reserved.
Copyright (c) 2004 Alexander Djourik. All rights reserved.
------------------------------------------------------------
Processing file: [01. Dragonfly-Trichinela Spiralis-Prelude to Wild Mountain Thyme-Los Gaviotis-Viva La West Side.wav]
------------------------------------------------------------
This track looks like CDDA with probability 100%
------------------------------------------------------------
Processing file: [02. Loa Loa.wav]
------------------------------------------------------------
This track looks like CDDA with probability 100%
------------------------------------------------------------
Processing file: [03. Strongyloides Stercoralis.wav]
------------------------------------------------------------
This track looks like CDDA with probability 100%
------------------------------------------------------------
Processing file: [04. Wucheria Bancrofti-Post Power Mower Grasshopper.wav]
------------------------------------------------------------
This track looks like CDDA with probability 100%
------------------------------------------------------------
Processing file: [05. Song for my Ant Lion.wav]
------------------------------------------------------------
This track looks like CDDA with probability 100%
------------------------------------------------------------
Processing file: [06. Ancyclostoma Brazilense.wav]
------------------------------------------------------------
This track looks like CDDA with probability 100%
------------------------------------------------------------
Processing file: [07. Necatur Americanus-Ancyclostoma Diodinae.wav]
------------------------------------------------------------
This track looks like CDDA with probability 100%
------------------------------------------------------------
Processing file: [08. The Waterstriders.wav]
------------------------------------------------------------
This track looks like CDDA with probability 100%
------------------------------------------------------------
Processing file: [09. Encroachment.wav]
------------------------------------------------------------
This track looks like CDDA with probability 100%
------------------------------------------------------------
Processing file: [10. Prelude to Gromphado-Gromphado.wav]
------------------------------------------------------------
This track looks like CDDA with probability 100%
------------------------------------------------------------
Final Conclusion:
------------------------------------------------------------
These tracks looks like CDDA with probability 100%
Доп. информация:
 
AMG Review
Ignore the puerile musings by the good professor, and instead enjoy his slightly demented music, which includes a collection of tracks from four different conglomerations, recorded over the course of five years. Concentrating on various combinations of strings, Chadbourne leads with his acoustic banjo and guitar. Most of the pieces are multitracked performances with Chadbourne overdubbing on guitars, banjos, and assorted homemade instruments, while one features mandolin soloist Barry Mitterhof with a trio. Others add accordion, bassoon, and oboe, and the results, if not electrifying, should please admirers of Chadbourne. While some might find the extensive doodling tiresome, there is no question that the humor, creativity, and incomprehensible melange add up to a good time.
 
Состав
Eugene Chadbourne: guitars, dobro, banjo, prepared piano, percussion, Communist harmonicas, homemade instruments, effects
Barry Mitterhof: mandolin
Charles Rosina: tape & electronic effects
Bob Jordan: tapes, homemade instruments & Portuguese man'o'war guitar
Brian Ritchie: acoustic bass guitar, shakuhachi, didgeridoo
Brent Dunn: contrabass
Ted Reichman: accordion & piano
Leslie Ross: bassoon
Carrie Shull: oboe
Tony Trischka: banjo
Carla Kihlstedt: violin
George Cremaschi: contrabass
По всем вопросам пишите личное сообщение пользователю M0p94ok.
06:36
205
Нет комментариев. Ваш будет первым!