Вы используете незарегистрированную версию компонента "Вкладки"!

Поиск

(Free Improvisation / Avant-Garde) Kirk Knuffke Quartet - Big Wig - 2008, FLAC (image+.cue), lossless

(Free Improvisation / Avant-Garde) Kirk Knuffke Quartet - Big Wig - 2008, FLAC (image+.cue), lossless
Треклист:
Kirk Knuffke Quartet - Big Wig

Жанр: Free Improvisation / Avant-Garde
Год выпуска диска: 2008
Производитель диска: Portugal (Clean Feed CF107_0
Аудио кодек: FLAC
Тип рипа: image+.cue
Битрейт аудио: lossless
Продолжительность: 1:02:04
Источник: Собственный рип с оригинального диска
Kirk Knuffke: trumpet
Brian Drye: trombone
Reuben Radding: bass
Jeff Davis: drums
1. Enough
2. The Same
3. Sustain 1
4. Something's Always Change
5. Page 1 #1
6. Sustain 2
7. Normal
8. Charp
9. Repeat
10. Is Is
11. Big Wig
12. Truck
Recorded March 22, 2007 at Studio STATS, Brooklyn, NY.

 
Clean Feed
Although trumpeter Kirk Knuffke is a fresh face to the international jazz scene, he has been remarkable active in the last few years. Besides being a member of Butch Morris' Orchestra Slang, the Nublu Orchestra, Jeff Davis Band, Ideal Bread, No Truck, and Kenny Wollesen's Wollesonic, he has played on stage or recorded with, among others, Graham Haynes, Eddie Henderson, Daniel Carter, John Zorn, Tony Malaby, Dave Douglas, Briggan Krauss, Steven Bernstein, and Sonny Simmons. His teachers include such polar opposites as Ornette Coleman and Wynton Marsalis. "Big Wig" is Knuffke's debut record. This Denver-born turned New Yorker musician admires the sound and the phrasing of Lester Bowie (you may notice his influence) and the compositional work of Steve Lacy (Knuffke plays in a band dedicated to interpret the departed soprano saxophonist's tunes), but he also loves Thad Jones swinging orchestral ideas. There's a Chet-Baker-like sweetness in his playing and he has a crazy predilection for Pee Wee Russell and his clarinet. "Open" and "straight-ahead" are terms that simultaneously apply to the Kirk Knuffke Quartet. One doesn't exclude the other. They simply are two aspects of the same thing. The group can be rigorous, yes, but also "rude and reckless when the music calls for it," as Kirk writes in the liner notes of this album. ~ Clean Feed Records
 
EAC Report
Exact Audio Copy V0.99 prebeta 5 from 4. May 2009
EAC extraction logfile from 27. February 2010, 16:11
Kirk Knuffke Quartet / Big Wig
Used drive : hp DVD-RAM GH40L Adapter: 0 ID: 1
Read mode : Secure
Utilize accurate stream : Yes
Defeat audio cache : Yes
Make use of C2 pointers : No
Read offset correction : 667
Overread into Lead-In and Lead-Out : No
Fill up missing offset samples with silence : Yes
Delete leading and trailing silent blocks : No
Null samples used in CRC calculations : Yes
Used interface : Installed external ASPI interface
Used output format : User Defined Encoder
Selected bitrate : 1024 kBit/s
Quality : High
Add ID3 tag : No
Command line compressor : C:\Program Files\Exact Audio Copy\Flac\flac.exe
Additional command line options : -6 -V -T "ARTIST=%a" -T "TITLE=%t" -T "ALBUM=%g" -T "DATE=%y" -T "TRACKNUMBER=%n" -T "GENRE=%m" -T "COMMENT=EAC FLAC -6" %s
TOC of the extracted CD
Track | Start | Length | Start sector | End sector
---------------------------------------------------------
1 | 0:00.00 | 3:54.63 | 0 | 17612
2 | 3:54.63 | 6:09.69 | 17613 | 45356
3 | 10:04.57 | 2:14.05 | 45357 | 55411
4 | 12:18.62 | 4:42.70 | 55412 | 76631
5 | 17:01.57 | 7:18.52 | 76632 | 109533
6 | 24:20.34 | 2:11.68 | 109534 | 119426
7 | 26:32.27 | 7:55.15 | 119427 | 155066
8 | 34:27.42 | 7:44.74 | 155067 | 189940
9 | 42:12.41 | 2:44.56 | 189941 | 202296
10 | 44:57.22 | 6:42.26 | 202297 | 232472
11 | 51:39.48 | 5:34.37 | 232473 | 257559
12 | 57:14.10 | 4:49.47 | 257560 | 279281
Range status and errors
Selected range
Filename C:\Users\Igor\Music\eac\Kirk Knuffke Quartet - Big Wig.wav
Peak level 97.7 %
Range quality 100.0 %
Test CRC D1C06984
Copy CRC D1C06984
Copy OK
No errors occurred
AccurateRip summary
Track 1 not present in database
Track 2 not present in database
Track 3 not present in database
Track 4 not present in database
Track 5 not present in database
Track 6 not present in database
Track 7 not present in database
Track 8 not present in database
Track 9 not present in database
Track 10 not present in database
Track 11 not present in database
Track 12 not present in database
None of the tracks are present in the AccurateRip database
End of status report
Any questions -> support@pro-jazz.com. По всем вопросам пишите -> support@pro-jazz.com
20:24
153
Нет комментариев. Ваш будет первым!