Вы используете незарегистрированную версию компонента "Вкладки"!

Поиск

(Free Improvisation, Avant-Garde Jazz) Tobias Delius 4 Tet (Tristan Honsinger, Joe Williamson, Han Bennink) - Luftlucht - 2010, FLAC (image+.cue), lossless

Треклист:
Tobias Delius 4 Tet / Luftlucht
Жанр: Free Improvisation, Avant-Garde Jazz
Страна-производитель диска: Netherlands
Год издания диска: 2010
Издатель (лейбл): Instant Composers Pool
Номер по каталогу: ICP 048
Аудиокодек: FLAC (*.flac)
Тип рипа: image+.cue
Битрейт аудио: lossless
Продолжительность: 51:09
Источник (релизер): cd
Наличие сканов в содержимом раздачи: нет
Треклист:
1 Grey / Counter Meal / Mouse March / Bird Brain 11:52
2 ?Yellow? / Malvasia 7:10
3 Poeing 4:45
4 Cistern 4:20
5 Friar / I Love You When You're Modest / Lullo's Page / Celsius 8:34
6 Kit 5:06
7 Befana 3:37
8 Guest Room / Luftlucht 5:46
 
Лог создания рипа
Exact Audio Copy V1.0 beta 2 from 29. April 2011
EAC extraction logfile from 1. August 2011, 20:57
Tobias Delius 4 Tet / Luftlucht
Used drive : Optiarc DVD RW AD-7170A Adapter: 0 ID: 0
Read mode : Secure
Utilize accurate stream : Yes
Defeat audio cache : Yes
Make use of C2 pointers : No
Read offset correction : 48
Overread into Lead-In and Lead-Out : No
Fill up missing offset samples with silence : Yes
Delete leading and trailing silent blocks : No
Null samples used in CRC calculations : Yes
Used interface : Native Win32 interface for Win NT & 2000
Used output format : User Defined Encoder
Selected bitrate : 320 kBit/s
Quality : High
Add ID3 tag : No
Command line compressor : C:\Program Files\Exact Audio Copy\Flac\flac.exe
Additional command line options : -V -8 -T "Date=%year%" -T "Genre=%genre%" %source%
TOC of the extracted CD
Track | Start | Length | Start sector | End sector
---------------------------------------------------------
1 | 0:00.00 | 11:52.73 | 0 | 53472
2 | 11:52.73 | 7:09.45 | 53473 | 85692
3 | 19:02.43 | 4:45.06 | 85693 | 107073
4 | 23:47.49 | 4:19.58 | 107074 | 126556
5 | 28:07.32 | 8:33.58 | 126557 | 165089
6 | 36:41.15 | 5:06.32 | 165090 | 188071
7 | 41:47.47 | 3:36.60 | 188072 | 204331
8 | 45:24.32 | 5:45.43 | 204332 | 230249
Range status and errors
Selected range
Filename C:\ЕАС\Tobias Delius 4 Tet - Luftlucht.wav
Peak level 99.7 %
Extraction speed 5.1 X
Range quality 99.9 %
Test CRC 83BA006F
Copy CRC 83BA006F
Copy OK
No errors occurred
AccurateRip summary
Track 1 accurately ripped (confidence 2) [1FCF3D4C] (AR v1)
Track 2 accurately ripped (confidence 2) [3155FEDC] (AR v1)
Track 3 accurately ripped (confidence 2) [86A52D59] (AR v1)
Track 4 accurately ripped (confidence 2) [7F15B4D1] (AR v1)
Track 5 accurately ripped (confidence 2) [12F3D6F2] (AR v1)
Track 6 accurately ripped (confidence 2) [34658CEC] (AR v1)
Track 7 accurately ripped (confidence 2) [65D81EE2] (AR v1)
Track 8 accurately ripped (confidence 2) [27B773AE] (AR v1)
All tracks accurately ripped
End of status report
==== Log checksum C59D96978FB96543A2EE20D8311638371A1F70D807E21788B60F5F48146F1AED ====
 
Содержание индексной карты (.CUE)
REM GENRE Jazz
REM DATE 2010
REM DISCID 680BFE08
REM COMMENT "ExactAudioCopy v1.0b2"
PERFORMER "Tobias Delius 4 Tet"
TITLE "Luftlucht"
FILE "Tobias Delius 4 Tet - Luftlucht.flac" WAVE
TRACK 01 AUDIO
TITLE "Grey / Counter Meal / Mouse March / Bird Brain"
PERFORMER "Tobias Delius 4 Tet"
ISRC 000000000000
INDEX 01 00:00:00
TRACK 02 AUDIO
TITLE "?Yellow? / Malvasia"
PERFORMER "Tobias Delius 4 Tet"
ISRC 000000000000
INDEX 01 11:52:73
TRACK 03 AUDIO
TITLE "Poeing"
PERFORMER "Tobias Delius 4 Tet"
ISRC 000000000000
INDEX 01 19:02:43
TRACK 04 AUDIO
TITLE "Cistern"
PERFORMER "Tobias Delius 4 Tet"
ISRC 000000000000
INDEX 01 23:47:49
TRACK 05 AUDIO
TITLE "Friar / I Love You When You're Modest / Lullo's Page / Celsius"
PERFORMER "Tobias Delius 4 Tet"
ISRC 000000000000
INDEX 01 28:07:32
TRACK 06 AUDIO
TITLE "Kit"
PERFORMER "Tobias Delius 4 Tet"
ISRC 000000000000
INDEX 01 36:41:15
TRACK 07 AUDIO
TITLE "Befana"
PERFORMER "Tobias Delius 4 Tet"
ISRC 000000000000
INDEX 01 41:47:47
TRACK 08 AUDIO
TITLE "Guest Room / Luftlucht"
PERFORMER "Tobias Delius 4 Tet"
ISRC 000000000000
INDEX 01 45:24:32
 
Состав
Saxophone – Tobias Delius
Cello – Tristan Honsinger
Bass – Joe Williamson
Drums – Han Bennink
Any questions -> support@pro-jazz.com. По всем вопросам пишите -> support@pro-jazz.com
15:32
160
Нет комментариев. Ваш будет первым!