Вы используете незарегистрированную версию компонента "Вкладки"!

Поиск

(Free Improvisation / Avant-Garde Jazz) Pascal Niggenkemper (Simon Nabatov, Gerald Cleaver) - Upcoming Hurricane - 2011, FLAC (tracks+.cue), lossless

(Free Improvisation / Avant-Garde Jazz) Pascal Niggenkemper (Simon Nabatov, Gerald Cleaver) - Upcoming Hurricane - 2011, FLAC (tracks+.cue), lossless
Треклист:
Pascal Niggenkemper - Upcoming Hurricane
Жанр: Free Improvisation / Avant-Garde Jazz
Страна-производитель диска: Lithuania
Год издания: 2011
Издатель (лейбл): NoBusiness Records
Номер по каталогу: NBCD 34
Аудиокодек: FLAC (*.flac)
Тип рипа: tracks+.cue
Битрейт аудио: lossless
Продолжительность: 51:09
Источник (релизер): nnm, Джаз Клуб, 15 апреля, 2013 / спасибо mishka1981
Наличие сканов в содержимом раздачи: да / *.jpg (300 dpi)
Треклист:
1. Pusteblume (04:38)
2. Upcoming hurricane (11:14)
3. Arbol de piedra (05:53)
4. Aeolus (05:14)
5. Fighting the mill (11:10)
6. Rahonavis (04:56)
7. Mongolfière (07:49)
Доп. информация:
Musicians:
PASCAL NIGGENKEMPER - double bass
SIMON NABATOV - piano
GERALD CLEAVER - drums
Recorded on March 16, 2010 by Christian Heck at Loft in Köln
PASCAL NIGGENKEMPER - Upcoming Hurricane nobusinessrecords.com
PASCAL NIGGENKEMPER - Upcoming Hurricane allaboutjazz.com
PASCAL NIGGENKEMPER Official Site
 
... back ...
 
... photo ...

 
... review ...
Free jazz trios require an instigator - someone who will incite others to action, counteraction, or response. With the trio of double bassist Pascal Niggenkemper, Simon Nabatov, and Gerald Cleaver, there are three such instigators, and onUpcoming Hurricane, these the three musicians collaborate to create nearly a perfect storm.
A relative newcomer, German-born Niggenkemper invited the two veterans for this improvisation session, and as such, he is the architect of these tracks. Certainly, his bass stands up as an equal voice here, opening the disc with swirling bow work on "Pusteblume," with Nabatov's piano detonated first from the inside (strings), then with some contemplative wondering at the keys; this coming together through mushrooming energy is an appealing feature throughtout. Cleaver's scavenging work at his kit can take on "found sounds," like that of hubcaps and wind chimes, on "Fighting The Mill"; like his work in Farmers By Nature, with William Parker and Craig Taborn, Cleaver shifts from minimalist to thunderous fomenter with ease. But, then, so can Nabatov. The pianist, whose previous work with the drummers such as Tom Rainey, Paul Lovens, and Michael Sarin, can approach these interactions with the scrabble of horn player and the painter-like qualities of a stringed instrument. The delicacy of his playing balances Niggenkemper's fiery momentum and Cleaver's decorations.
The best example of this group's facility is on the nearly 12-minutes title track, where the trio builds a dense, layered, and ever-increasingly energized sound that morphs constantly into a thunderhead. The brewing tempest has Nabatov favoring left hand rumblings, Niggenkemper the reverberations of energy from bowed and plucked strings, and Cleaver a churning surge of power. It is a masterpiece of instant composition.
Mark Corroto ~ allaboutjazz.com
 
Лог создания рипа
Exact Audio Copy V1.0 beta 1 from 15. November 2010
EAC extraction logfile from 14. April 2013, 15:46
Pascal Niggenkemper / Upcoming Hurricane
Used drive : TSSTcorpCDDVDW TS-L633A Adapter: 3 ID: 0
Read mode : Secure
Utilize accurate stream : Yes
Defeat audio cache : Yes
Make use of C2 pointers : No
Read offset correction : 6
Overread into Lead-In and Lead-Out : No
Fill up missing offset samples with silence : Yes
Delete leading and trailing silent blocks : No
Null samples used in CRC calculations : Yes
Used interface : Installed external ASPI interface
Gap handling : Appended to previous track
Used output format : User Defined Encoder
Selected bitrate : 896 kBit/s
Quality : High
Add ID3 tag : No
Command line compressor : C:\Program Files\Exact Audio Copy\FLAC\FLAC.EXE
Additional command line options : -8 -V -T "ARTIST=%a" -T "TITLE=%t" -T "ALBUM=%g" -T "DATE=%y" -T "TRACKNUMBER=%n" -T "TOTALTRACKS=%x" -T "GENRE=%m" -T "ALBUMARTIST=%v" -T "ALBUM ARTIST=%v" -T "COMMENT=EAC Secure Mode, Test & Copy, AccurateRip, FLAC -8" %s
TOC of the extracted CD
Track | Start | Length | Start sector | End sector
---------------------------------------------------------
1 | 0:00.00 | 4:38.19 | 0 | 20868
2 | 4:38.19 | 11:44.28 | 20869 | 73696
3 | 16:22.47 | 5:53.62 | 73697 | 100233
4 | 22:16.34 | 5:14.40 | 100234 | 123823
5 | 27:30.74 | 11:10.49 | 123824 | 174122
6 | 38:41.48 | 4:56.12 | 174123 | 196334
7 | 43:37.60 | 7:49.28 | 196335 | 231537
Track 1
Filename C:\MY RIPS\01 - Pusteblume.wav
Pre-gap length 0:00:02.00
Peak level 73.7 %
Extraction speed 0.9 X
Track quality 99.9 %
Test CRC 2CF5A06A
Copy CRC 2CF5A06A
Accurately ripped (confidence 1) [EED9AE66]
Copy OK
Track 2
Filename C:\MY RIPS\02 - Upcoming hurricane.wav
Pre-gap length 0:00:03.00
Peak level 100.0 %
Extraction speed 1.4 X
Track quality 100.0 %
Test CRC 745D8FEE
Copy CRC 745D8FEE
Accurately ripped (confidence 1) [1C69C29A]
Copy OK
Track 3
Filename C:\MY RIPS\03 - Arbol de piedra.wav
Pre-gap length 0:00:03.00
Peak level 70.7 %
Extraction speed 1.6 X
Track quality 100.0 %
Test CRC 7032356D
Copy CRC 7032356D
Accurately ripped (confidence 1) [81E42F0C]
Copy OK
Track 4
Filename C:\MY RIPS\04 - Aeolus.wav
Pre-gap length 0:00:03.00
Peak level 100.0 %
Extraction speed 1.7 X
Track quality 100.0 %
Test CRC 7D0F9ACC
Copy CRC 7D0F9ACC
Accurately ripped (confidence 1) [7BB99F85]
Copy OK
Track 5
Filename C:\MY RIPS\05 - Fighting the mill.wav
Pre-gap length 0:00:03.00
Peak level 100.0 %
Extraction speed 2.0 X
Track quality 100.0 %
Test CRC 09A72F2D
Copy CRC 09A72F2D
Accurately ripped (confidence 1) [106FF27F]
Copy OK
Track 6
Filename C:\MY RIPS\06 - Rahonavis.wav
Pre-gap length 0:00:03.00
Peak level 100.0 %
Extraction speed 2.0 X
Track quality 100.0 %
Test CRC 281D1519
Copy CRC 281D1519
Accurately ripped (confidence 1) [5FB9B862]
Copy OK
Track 7
Filename C:\MY RIPS\07 - Mongolfiere.wav
Pre-gap length 0:00:03.00
Peak level 100.0 %
Extraction speed 2.2 X
Track quality 100.0 %
Test CRC 97EE3485
Copy CRC 97EE3485
Accurately ripped (confidence 1) [C709813B]
Copy OK
All tracks accurately ripped
No errors occurred
End of status report
==== Log checksum BC42128CF48E6D4F41955CAE331EB65A44D38B01E31242C31FDDD9F7C25E49FE ====
 
Содержание индексной карты (.CUE)
REM GENRE Jazz
REM DATE 2011
REM DISCID 5A0C0F07
REM COMMENT "ExactAudioCopy v1.0b1"
PERFORMER "Pascal Niggenkemper"
TITLE "Upcoming Hurricane"
FILE "01 - Pusteblume.wav" WAVE
TRACK 01 AUDIO
TITLE "Pusteblume"
PERFORMER "Pascal Niggenkemper"
INDEX 01 00:00:00
TRACK 02 AUDIO
TITLE "Upcoming hurricane"
PERFORMER "Pascal Niggenkemper"
INDEX 00 04:35:19
FILE "02 - Upcoming hurricane.wav" WAVE
INDEX 01 00:00:00
TRACK 03 AUDIO
TITLE "Arbol de piedra"
PERFORMER "Pascal Niggenkemper"
INDEX 00 11:41:28
FILE "03 - Arbol de piedra.wav" WAVE
INDEX 01 00:00:00
TRACK 04 AUDIO
TITLE "Aeolus"
PERFORMER "Pascal Niggenkemper"
INDEX 00 05:50:62
FILE "04 - Aeolus.wav" WAVE
INDEX 01 00:00:00
TRACK 05 AUDIO
TITLE "Fighting the mill"
PERFORMER "Pascal Niggenkemper"
INDEX 00 05:11:40
FILE "05 - Fighting the mill.wav" WAVE
INDEX 01 00:00:00
TRACK 06 AUDIO
TITLE "Rahonavis"
PERFORMER "Pascal Niggenkemper"
INDEX 00 11:07:49
FILE "06 - Rahonavis.wav" WAVE
INDEX 01 00:00:00
TRACK 07 AUDIO
TITLE "Mongolfiere"
PERFORMER "Pascal Niggenkemper"
INDEX 00 04:53:12
FILE "07 - Mongolfiere.wav" WAVE
INDEX 01 00:00:00
 
auCDtect Task Manager
-----------------------
DON'T MODIFY THIS FILE
-----------------------
PERFORMER: auCDtect Task Manager, ver. 1.5.1RC6 build 1.5.1.7
Copyright (c) 2008-2010 y-soft. All rights reserved
http://y-soft.org
ANALYZER: auCDtect: CD records authenticity detector, version 0.8.2
Copyright (c) 2004 Oleg Berngardt. All rights reserved.
Copyright (c) 2004 Alexander Djourik. All rights reserved.
FILE: 07 - Mongolfiere.flac
Size: 52798372 Hash: 742A1D1E7FB9537CAD9B6C634770BA9D Accuracy: -m0
Conclusion: CDDA 99%
Signature: B8AE01E17A3AC39BC9132A52C8AEC7A59D6ABB8B
FILE: 06 - Rahonavis.flac
Size: 25779675 Hash: DEE63711F4792ADF4266C9DAB130C698 Accuracy: -m0
Conclusion: CDDA 100%
Signature: 1B2699E4CA17FFB11A1926C5DE6D2E2FAD317DB9
FILE: 05 - Fighting the mill.flac
Size: 74414055 Hash: 2A9BCC50903598240E89552D81648884 Accuracy: -m0
Conclusion: CDDA 99%
Signature: D6661193D9DF5A3EBB1B2BCBD158136BE4C014DC
FILE: 04 - Aeolus.flac
Size: 33140918 Hash: F6A41152879A26CD5123C0E731E5D1D8 Accuracy: -m0
Conclusion: CDDA 100%
Signature: 5779819A106D99D041A03F9B41B4DC852B0CD025
FILE: 03 - Arbol de piedra.flac
Size: 26921273 Hash: AA80FA19C9384D0BE4B421FE6304AF4D Accuracy: -m0
Conclusion: CDDA 100%
Signature: D2481D461E231B0F733B09AA4926FD9490A0B696
FILE: 02 - Upcoming hurricane.flac
Size: 83434557 Hash: 6197A7F0884C5DB4E9ED3316EACCA354 Accuracy: -m0
Conclusion: CDDA 100%
Signature: 4C02F7C6C139A8D4E0EBC23DDCA3B396C9828423
FILE: 01 - Pusteblume.flac
Size: 24306888 Hash: 14D28DA4B002407BCA389FE86F90EB73 Accuracy: -m0
Conclusion: CDDA 100%
Signature: 767CCC83E62BD6C56221E971F0B0DAF0D58116A7
Any questions -> support@pro-jazz.com. По всем вопросам пишите -> support@pro-jazz.com
11:12
200
Нет комментариев. Ваш будет первым!