Вы используете незарегистрированную версию компонента "Вкладки"!

Поиск

(Free Improvisation, Avant-Garde Jazz, Modern Creative, Rune Grammofon) Fire! (Mats Gustafsson/Johan Berthling/Andreas Werliin) - You Liked Me Five Minutes Ago - 2009, FLAC (tracks+.cue), lossless

(Free Improvisation, Avant-Garde Jazz, Modern Creative, Rune Grammofon) Fire! (Mats Gustafsson/Johan Berthling/Andreas Werliin) - You Liked Me Five Minutes Ago - 2009, FLAC (tracks+.cue), lossless
Треклист:
Fire! (Mats Gustafsson/Johan Berthling/Andreas Werliin) - You Liked Me Five Minutes Ago
Жанр: Free Improvisation, Avant-Garde Jazz, Modern Creative, Rune Grammofon
Год выпуска диска: 2009
Производитель диска: Norway (Rune Grammofon RCD2091)
Аудио кодек: FLAC
Тип рипа: tracks+.cue
Битрейт аудио: lossless
Продолжительность: 41:53
Трэклист:
1. If I Took Your Hand... 6:41
2. But Sometimes I Am 17:52 (vocals: Mariam Wallentin)
3. Can I Hold You For a Minute? 13:24
4. You Liked Me Five Minutes Ago 3:55
Доп. информация:
Saxophone [Tenor & Baritone], Electronics, Electric Piano [Fender Rhodes] - Mats Gustafsson
Double Bass, Electric Bass, Electric Guitar, Organ [Hammond] - Johan Berthling
Drums, Percussion - Andreas Werliin
Mastered By - Joachim Ekermann
Other [Titles Inspired by] - Robert Creeley
Producer [Produced by and With], Written-by [All Selections by] - Fire!
Recorded by, Mixed by - Johan Berthling
Recorded by, Recorded by [Vocals], Mixed by - Andreas Werliin
Recorded and Mixed at Summa, Stockholm.
Mastered at Helter Skelter.
Artwork by [Sleeve] - Kim Hiorthoy.
 
XLD extraction logfile:
X Lossless Decoder version 20091225 (115.1)
XLD extraction logfile from 2009-12-26 11:03:37 -0500
Fire / You Liked Me Five Minutes Ago
Used drive : MATSHITA DVD-R UJ-857E (revision ZF1E)
Use cdparanoia mode : YES (CDParanoia III 10.2 engine)
Disable audio cache : OK for the drive with cache less than 2750KB
Make use of C2 pointers : NO
Read offset correction : 102
Max retry count : 100
TOC of the extracted CD
Track | Start | Length | Start sector | End sector
---------------------------------------------------------
1 | 00:00:00 | 06:40:71 | 0 | 30070
2 | 06:40:71 | 17:52:46 | 30071 | 110516
3 | 24:33:42 | 13:24:17 | 110517 | 170833
4 | 37:57:59 | 03:55:11 | 170834 | 188469
All Tracks
Album gain : -6.18 dB
Peak : 0.988647
Track 01
Filename : /Volumes/Time Machine Backups/FLACS/01 - If I Took Your Hand....flac
/Volumes/Time Machine Backups/FLACS/01 - If I Took Your Hand....mp3
Pre-gap length : 00:02:00
Track gain : -5.71 dB
Peak : 0.988617
CRC32 hash (test run) : 10972BA8
CRC32 hash : 10972BA8
CRC32 hash (skip zero) : F674B880
AccurateRip signature : B30565D6
->Track not present in AccurateRip database.
Statistics
Read error : 0
Skipped (treated as error) : 0
Edge jitter error (maybe fixed) : 0
Atom jitter error (maybe fixed) : 0
Drift error (maybe fixed) : 0
Dropped bytes error (maybe fixed) : 0
Duplicated bytes error (maybe fixed) : 0
Inconsistency in error sectors : 0
Track 02
Filename : /Volumes/Time Machine Backups/FLACS/02 - But Sometimes I Am.flac
/Volumes/Time Machine Backups/FLACS/02 - But Sometimes I Am.mp3
Track gain : -3.12 dB
Peak : 0.988617
CRC32 hash (test run) : D82C0214
CRC32 hash : D82C0214
CRC32 hash (skip zero) : 0B55AAAB
AccurateRip signature : 88220171
->Track not present in AccurateRip database.
Statistics
Read error : 0
Skipped (treated as error) : 0
Edge jitter error (maybe fixed) : 0
Atom jitter error (maybe fixed) : 0
Drift error (maybe fixed) : 0
Dropped bytes error (maybe fixed) : 0
Duplicated bytes error (maybe fixed) : 0
Inconsistency in error sectors : 0
Track 03
Filename : /Volumes/Time Machine Backups/FLACS/03 - Can I Hold You For A Minute?.flac
/Volumes/Time Machine Backups/FLACS/03 - Can I Hold You For A Minute?.mp3
Track gain : -6.89 dB
Peak : 0.988647
CRC32 hash (test run) : EF585A3D
CRC32 hash : EF585A3D
CRC32 hash (skip zero) : 8CD92582
AccurateRip signature : B4CA1C1F
->Track not present in AccurateRip database.
Statistics
Read error : 0
Skipped (treated as error) : 0
Edge jitter error (maybe fixed) : 0
Atom jitter error (maybe fixed) : 0
Drift error (maybe fixed) : 0
Dropped bytes error (maybe fixed) : 0
Duplicated bytes error (maybe fixed) : 0
Inconsistency in error sectors : 0
Track 04
Filename : /Volumes/Time Machine Backups/FLACS/04 - You Liked Me Five Minutes Ago.flac
/Volumes/Time Machine Backups/FLACS/04 - You Liked Me Five Minutes Ago.mp3
Track gain : -3.37 dB
Peak : 0.988647
CRC32 hash (test run) : 68882522
CRC32 hash : 68882522
CRC32 hash (skip zero) : 2DB50001
AccurateRip signature : 24F7E9DF
->Track not present in AccurateRip database.
Statistics
Read error : 0
Skipped (treated as error) : 0
Edge jitter error (maybe fixed) : 0
Atom jitter error (maybe fixed) : 0
Drift error (maybe fixed) : 0
Dropped bytes error (maybe fixed) : 0
Duplicated bytes error (maybe fixed) : 0
Inconsistency in error sectors : 0
No errors occurred
End of status report
 
CUE
REM GENRE Free Improvisation
REM DATE 2009
CATALOG 7033662020911
TITLE "You Liked Me Five Minutes Ago"
PERFORMER "Fire!"
REM REPLAYGAIN_ALBUM_GAIN -6.18 dB
REM REPLAYGAIN_ALBUM_PEAK 0.988647
FILE "01 - If I Took Your Hand....wav" WAVE
TRACK 01 AUDIO
TITLE "If I Took Your Hand..."
ISRC NOFGR0991010
REM REPLAYGAIN_TRACK_GAIN -5.71 dB
REM REPLAYGAIN_TRACK_PEAK 0.988617
INDEX 01 00:00:00
FILE "02 - But Sometimes I Am.wav" WAVE
TRACK 02 AUDIO
TITLE "But Sometimes I Am"
ISRC NOFGR0991020
REM REPLAYGAIN_TRACK_GAIN -3.12 dB
REM REPLAYGAIN_TRACK_PEAK 0.988617
INDEX 01 00:00:00
FILE "03 - Can I Hold You For A Minute?.wav" WAVE
TRACK 03 AUDIO
TITLE "Can I Hold You For A Minute?"
ISRC NOFGR0991030
REM REPLAYGAIN_TRACK_GAIN -6.89 dB
REM REPLAYGAIN_TRACK_PEAK 0.988647
INDEX 01 00:00:00
FILE "04 - You Liked Me Five Minutes Ago.wav" WAVE
TRACK 04 AUDIO
TITLE "You Liked Me Five Minutes Ago"
ISRC NOFGR0991040
REM REPLAYGAIN_TRACK_GAIN -3.37 dB
REM REPLAYGAIN_TRACK_PEAK 0.988647
INDEX 01 00:00:00
 
album info:
Hypnotic and psychedelic different sounding ”jazz” from brand new Swedish group counting three brilliant musicians in Mats Gustafsson (The Thing) on saxophones and Fender Rhodes, Johan Berthling (Tape) on bass, electric guitar and Hammond organ and Andreas Werliin (Wildbirds & Peacedrums) on drums. Quite excellent album that comes highly recommended!
downloaded from what.cd thanks a lot to stones2621
Any questions -> support@pro-jazz.com. По всем вопросам пишите -> support@pro-jazz.com
23:13
144
Нет комментариев. Ваш будет первым!