Вы используете незарегистрированную версию компонента "Вкладки"!

Поиск

(Free Improvisation, Avant-Garde jazz) Joëlle Léandre (Joelle Leandre) & George E. Lewis - Transatlantic Visions - 2009, FLAC (tracks+.cue), lossless

(Free Improvisation, Avant-Garde jazz) Joëlle Léandre (Joelle Leandre) & George E. Lewis - Transatlantic Visions - 2009, FLAC (tracks+.cue), lossless
Треклист:
Joëlle Léandre & George E. LewisTransatlantic Visions
Жанр: Free Improvisation, Avant-Garde jazz
Год выпуска диска: 2009
Производитель диска: Rogueart ROG-0020 (France)
Аудио кодек: FLAC
Тип рипа: tracks+.cue
Битрейт аудио: lossless
Продолжительность: 52:06
Источник: what.cd (6060842)
Трэклист:
01 Transatlantic visions I (09.39)
02 Transatlantic visions II (09.57)
03 Transatlantic visions III (08.53)
04 Transatlantic visions IV (08.28)
05 Transatlantic visions V (07.20)
06 Transatlantic visions VI (02.43)
07 Transatlantic visions VII (05.06)
Joëlle Léandre: double bass
George Lewis: trombone
TRANSATLANTIC VISIONS is the live recording of the Vision Festival XIII concert (New-York, June 2008), which has been awarded "Best Performance of the Year" by the monthly magazine All About Jazz NY.
Recorded live on June 2008 at Vision Festival XIII (New-York) by Stefen Heger
Mixing and mastering: Jean-Marc Foussat
Liner notes: Alexandre Pierrepont
Photographs: Thierry Trombert, X
Produceur: Michel Dorbon
Доп. информация:
 
скрытый текст
Leandre plays with Bailey who plays with Lewis who plays with Leandre. Lewis plays with Les Diaboliques and Günter "Baby" Sommer or Paul Lovens. Léandre plays with Lewis and Steve Lacy, with Lewis and Anthony Braxton. The good thing, in the unknown world of known improvisers, is that everything is crater and archipelagos...
...Then, and foremost, have no reason to wait. The improvisers are first and foremost sound modifiers or particle accelerators. The chain reactions they provoke aim at the amorous new world.
Alexandre Pierrepont, excerpt from the liner notes
 
.CUE
TITLE "Transatlantic Visions"
PERFORMER "Joëlle Léandre, George Lewis"
REM GENRE "Free Jazz"
REM DATE "2009"
REM DISCNUMBER 1
REM TOTALDISCS 1
REM DISCID 5D0C3607
REM REPLAYGAIN_ALBUM_GAIN -5.55 dB
REM REPLAYGAIN_ALBUM_PEAK 1.000000
FILE "01 - Transatlantic Visions I.flac" WAVE
TRACK 01 AUDIO
TITLE "Transatlantic Visions I"
PERFORMER "Joëlle Léandre, George Lewis"
REM REPLAYGAIN_TRACK_GAIN -6.13 dB
REM REPLAYGAIN_TRACK_PEAK 1.000000
INDEX 01 00:00:00
TRACK 02 AUDIO
TITLE "Transatlantic Visions II"
PERFORMER "Joëlle Léandre, George Lewis"
REM REPLAYGAIN_TRACK_GAIN -1.87 dB
REM REPLAYGAIN_TRACK_PEAK 0.999969
INDEX 00 09:32:13
FILE "02 - Transatlantic Visions II.flac" WAVE
INDEX 01 00:00:00
TRACK 03 AUDIO
TITLE "Transatlantic Visions III"
PERFORMER "Joëlle Léandre, George Lewis"
REM REPLAYGAIN_TRACK_GAIN -4.39 dB
REM REPLAYGAIN_TRACK_PEAK 0.998993
INDEX 00 09:50:19
FILE "03 - Transatlantic Visions III.flac" WAVE
INDEX 01 00:00:00
TRACK 04 AUDIO
TITLE "Transatlantic Visions IV"
PERFORMER "Joëlle Léandre, George Lewis"
REM REPLAYGAIN_TRACK_GAIN -7.37 dB
REM REPLAYGAIN_TRACK_PEAK 1.000000
INDEX 00 08:46:16
FILE "04 - Transatlantic Visions IV.flac" WAVE
INDEX 01 00:00:00
TRACK 05 AUDIO
TITLE "Transatlantic Visions V"
PERFORMER "Joëlle Léandre, George Lewis"
REM REPLAYGAIN_TRACK_GAIN -5.00 dB
REM REPLAYGAIN_TRACK_PEAK 0.988953
INDEX 00 08:20:72
FILE "05 - Transatlantic Visions V.flac" WAVE
INDEX 01 00:00:00
TRACK 06 AUDIO
TITLE "Transatlantic Visions VI"
PERFORMER "Joëlle Léandre, George Lewis"
REM REPLAYGAIN_TRACK_GAIN 9.58 dB
REM REPLAYGAIN_TRACK_PEAK 0.401001
INDEX 00 07:12:70
FILE "06 - Transatlantic Visions VI.flac" WAVE
INDEX 01 00:00:00
TRACK 07 AUDIO
TITLE "Transatlantic Visions VII"
PERFORMER "Joëlle Léandre, George Lewis"
REM REPLAYGAIN_TRACK_GAIN -6.11 dB
REM REPLAYGAIN_TRACK_PEAK 1.000000
INDEX 00 02:35:60
FILE "07 - Transatlantic Visions VII.flac" WAVE
INDEX 01 00:00:00
 
LOG
X Lossless Decoder version 20130602 (143.2)
XLD extraction logfile from 2013-06-22 10:25:51 +0400
JoГ«lle LГ©andre, George Lewis / Transatlantic Visions
Used drive : HL-DT-ST DVDRW GX30N (revision RP09)
Media type : Pressed CD
Ripper mode : XLD Secure Ripper
Disable audio cache : OK for the drive with a cache less than 1375KiB
Make use of C2 pointers : NO
Read offset correction : 6
Max retry count : 100
Gap status : Analyzed, Appended (except HTOA)
TOC of the extracted CD
Track | Start | Length | Start sector | End sector
---------------------------------------------------------
1 | 00:00:00 | 09:39:13 | 0 | 43437
2 | 09:39:13 | 09:57:19 | 43438 | 88231
3 | 19:36:32 | 08:53:16 | 88232 | 128222
4 | 28:29:48 | 08:27:72 | 128223 | 166319
5 | 36:57:45 | 07:19:70 | 166320 | 199314
6 | 44:17:40 | 02:42:60 | 199315 | 211524
7 | 47:00:25 | 05:05:57 | 211525 | 234456
AccurateRip Summary (DiscID: 00105996-005f575e-5d0c3607)
Track 01 : OK (v1, confidence 2/2)
Track 02 : OK (v1, confidence 2/2)
Track 03 : OK (v1, confidence 2/2)
Track 04 : OK (v1, confidence 2/2)
Track 05 : OK (v1, confidence 2/2)
Track 06 : OK (v1, confidence 2/2)
Track 07 : OK (v1, confidence 2/2)
->All tracks accurately ripped.
All Tracks
Album gain : -5.55 dB
Peak : 1.000000
Statistics
Read error : 0
Jitter error (maybe fixed) : 0
Retry sector count : 0
Damaged sector count : 0
Track 01
Filename : /Users/anch/Music/FLAC/Joelle Leandre, George Lewis - 2009 - Transatlantic Visions [MP3 320]/01 - Transatlantic Visions I.mp3
/Users/anch/Music/FLAC/Joelle Leandre, George Lewis - 2009 - Transatlantic Visions [MP3 V0]/01 - Transatlantic Visions I.mp3
/Users/anch/Music/FLAC/Joelle Leandre, George Lewis - 2009 - Transatlantic Visions [FLAC]/01 - Transatlantic Visions I.flac
Pre-gap length : 00:02:00
Track gain : -6.13 dB
Peak : 1.000000
CRC32 hash (test run) : A348361E
CRC32 hash : A348361E
CRC32 hash (skip zero) : 8CD7B32E
AccurateRip v1 signature : 03163E55
AccurateRip v2 signature : A8EEB546
->Accurately ripped (v1, confidence 2/2)
Statistics
Read error : 0
Jitter error (maybe fixed) : 0
Retry sector count : 0
Damaged sector count : 0
Track 02
Filename : /Users/anch/Music/FLAC/Joelle Leandre, George Lewis - 2009 - Transatlantic Visions [MP3 320]/02 - Transatlantic Visions II.mp3
/Users/anch/Music/FLAC/Joelle Leandre, George Lewis - 2009 - Transatlantic Visions [MP3 V0]/02 - Transatlantic Visions II.mp3
/Users/anch/Music/FLAC/Joelle Leandre, George Lewis - 2009 - Transatlantic Visions [FLAC]/02 - Transatlantic Visions II.flac
Pre-gap length : 00:07:00
Track gain : -1.87 dB
Peak : 0.999969
CRC32 hash (test run) : 1694BABE
CRC32 hash : 1694BABE
CRC32 hash (skip zero) : 6333FB75
AccurateRip v1 signature : CABC05E1
AccurateRip v2 signature : 2AB8BAB2
->Accurately ripped (v1, confidence 2/2)
Statistics
Read error : 0
Jitter error (maybe fixed) : 0
Retry sector count : 0
Damaged sector count : 0
Track 03
Filename : /Users/anch/Music/FLAC/Joelle Leandre, George Lewis - 2009 - Transatlantic Visions [MP3 320]/03 - Transatlantic Visions III.mp3
/Users/anch/Music/FLAC/Joelle Leandre, George Lewis - 2009 - Transatlantic Visions [MP3 V0]/03 - Transatlantic Visions III.mp3
/Users/anch/Music/FLAC/Joelle Leandre, George Lewis - 2009 - Transatlantic Visions [FLAC]/03 - Transatlantic Visions III.flac
Pre-gap length : 00:07:00
Track gain : -4.39 dB
Peak : 0.998993
CRC32 hash (test run) : 79B3D34C
CRC32 hash : 79B3D34C
CRC32 hash (skip zero) : D7ABC6A8
AccurateRip v1 signature : 412C36D8
AccurateRip v2 signature : A8C4B655
->Accurately ripped (v1, confidence 2/2)
Statistics
Read error : 0
Jitter error (maybe fixed) : 0
Retry sector count : 0
Damaged sector count : 0
Track 04
Filename : /Users/anch/Music/FLAC/Joelle Leandre, George Lewis - 2009 - Transatlantic Visions [MP3 320]/04 - Transatlantic Visions IV.mp3
/Users/anch/Music/FLAC/Joelle Leandre, George Lewis - 2009 - Transatlantic Visions [MP3 V0]/04 - Transatlantic Visions IV.mp3
/Users/anch/Music/FLAC/Joelle Leandre, George Lewis - 2009 - Transatlantic Visions [FLAC]/04 - Transatlantic Visions IV.flac
Pre-gap length : 00:07:00
Track gain : -7.37 dB
Peak : 1.000000
CRC32 hash (test run) : 23A59C41
CRC32 hash : 23A59C41
CRC32 hash (skip zero) : 932795EB
AccurateRip v1 signature : 69FBA3B3
AccurateRip v2 signature : 75502869
->Accurately ripped (v1, confidence 2/2)
Statistics
Read error : 0
Jitter error (maybe fixed) : 0
Retry sector count : 0
Damaged sector count : 0
Track 05
Filename : /Users/anch/Music/FLAC/Joelle Leandre, George Lewis - 2009 - Transatlantic Visions [MP3 320]/05 - Transatlantic Visions V.mp3
/Users/anch/Music/FLAC/Joelle Leandre, George Lewis - 2009 - Transatlantic Visions [MP3 V0]/05 - Transatlantic Visions V.mp3
/Users/anch/Music/FLAC/Joelle Leandre, George Lewis - 2009 - Transatlantic Visions [FLAC]/05 - Transatlantic Visions V.flac
Pre-gap length : 00:07:00
Track gain : -5.00 dB
Peak : 0.988953
CRC32 hash (test run) : 202D8392
CRC32 hash : 202D8392
CRC32 hash (skip zero) : F71B7477
AccurateRip v1 signature : 8E2D256D
AccurateRip v2 signature : 1A442575
->Accurately ripped (v1, confidence 2/2)
Statistics
Read error : 0
Jitter error (maybe fixed) : 0
Retry sector count : 0
Damaged sector count : 0
Track 06
Filename : /Users/anch/Music/FLAC/Joelle Leandre, George Lewis - 2009 - Transatlantic Visions [MP3 320]/06 - Transatlantic Visions VI.mp3
/Users/anch/Music/FLAC/Joelle Leandre, George Lewis - 2009 - Transatlantic Visions [MP3 V0]/06 - Transatlantic Visions VI.mp3
/Users/anch/Music/FLAC/Joelle Leandre, George Lewis - 2009 - Transatlantic Visions [FLAC]/06 - Transatlantic Visions VI.flac
Pre-gap length : 00:07:00
Track gain : 9.58 dB
Peak : 0.401001
CRC32 hash (test run) : 602E4EEB
CRC32 hash : 602E4EEB
CRC32 hash (skip zero) : 8F67BCF5
AccurateRip v1 signature : A0A1AFB1
AccurateRip v2 signature : D0A28312
->Accurately ripped (v1, confidence 2/2)
Statistics
Read error : 0
Jitter error (maybe fixed) : 0
Retry sector count : 0
Damaged sector count : 0
Track 07
Filename : /Users/anch/Music/FLAC/Joelle Leandre, George Lewis - 2009 - Transatlantic Visions [MP3 320]/07 - Transatlantic Visions VII.mp3
/Users/anch/Music/FLAC/Joelle Leandre, George Lewis - 2009 - Transatlantic Visions [MP3 V0]/07 - Transatlantic Visions VII.mp3
/Users/anch/Music/FLAC/Joelle Leandre, George Lewis - 2009 - Transatlantic Visions [FLAC]/07 - Transatlantic Visions VII.flac
Pre-gap length : 00:07:00
Track gain : -6.11 dB
Peak : 1.000000
CRC32 hash (test run) : E97BD0F1
CRC32 hash : E97BD0F1
CRC32 hash (skip zero) : 28EE0D59
AccurateRip v1 signature : 85F88433
AccurateRip v2 signature : BE5B64D6
->Accurately ripped (v1, confidence 2/2)
Statistics
Read error : 0
Jitter error (maybe fixed) : 0
Retry sector count : 0
Damaged sector count : 0
No errors occurred
End of status report
Any questions -> support@pro-jazz.com. По всем вопросам пишите -> support@pro-jazz.com
12:59
150
Нет комментариев. Ваш будет первым!