Вы используете незарегистрированную версию компонента "Вкладки"!

Поиск

(Free Improvisation / Avant-Garde Jazz / Experimental) Fire Room (Paal Nilssen-Love, Ken Vandermark, Lasse Marhaug) - Broken Music - 2008, rec. 2005, [Atavistic ALP183CD] FLAC (tracks+.cue), lossless

(Free Improvisation / Avant-Garde Jazz / Experimental) Fire Room (Paal Nilssen-Love, Ken Vandermark, Lasse Marhaug) - Broken Music - 2008, rec. 2005, [Atavistic ALP183CD] FLAC (tracks+.cue), lossless
Треклист:
Fire Room - Broken Music
Жанр: Free Improvisation / Avant-Garde Jazz / Experimental
Страна-производитель диска: USA
Год издания: 2008
Издатель (лейбл): Atavistic
Номер по каталогу: ALP183CD
Аудиокодек: FLAC (*.flac)
Тип рипа: tracks+.cue
Битрейт аудио: lossless
Продолжительность: 00:52:47
Источник (релизер): nnm, Джаз Клуб, 28 мая, 2013 / спасибо mishka1981
Наличие сканов в содержимом раздачи: да
Треклист:
1. Broken Music 1 (05:15)
2. Slag (09:25)
3. When Water Burns Air (07:30)
4. Hand Lettered (09:04)
5. Dashboard Fire (05:08)
6. Line Of Lead (04:21)
7. Broken Music 2 (12:01)
Доп. информация:
Musicians:
Paal Nilssen-Love - drums
Ken Vandermark - tenor and baritone saxophon
Lasse Marhaug - electronics
Recorded in June 5th and 6th 2005 at Grand Sport Sudios, Oslo
Mixed July 23rd 2007. Mastered at Chicago Mastering Service. Sequenced on November 27th, 2007
Fire Room - Broken Music atavistic.com
Fire Room - Broken Music allaboutjazz.com
Ken Vandermark Official Site
Ken Vandermark from Wikipedia, the free encyclopedia
Paal Nilssen-Love Official Site
Paal Nilssen-Love from Wikipedia, the free encyclopedia
Lasse Marhaug Official Site
Lasse Marhaug from Wikipedia, the free encyclopedia
 
Лог создания рипа
Exact Audio Copy V1.0 beta 1 from 15. November 2010
EAC extraction logfile from 28. May 2013, 4:14
Fire Room / Broken Music
Used drive : TSSTcorpCDDVDW TS-L633A Adapter: 3 ID: 0
Read mode : Secure
Utilize accurate stream : Yes
Defeat audio cache : Yes
Make use of C2 pointers : No
Read offset correction : 6
Overread into Lead-In and Lead-Out : No
Fill up missing offset samples with silence : Yes
Delete leading and trailing silent blocks : No
Null samples used in CRC calculations : Yes
Used interface : Installed external ASPI interface
Gap handling : Appended to previous track
Used output format : User Defined Encoder
Selected bitrate : 896 kBit/s
Quality : High
Add ID3 tag : No
Command line compressor : C:\Program Files\Exact Audio Copy\FLAC\FLAC.EXE
Additional command line options : -8 -V -T "ARTIST=%a" -T "TITLE=%t" -T "ALBUM=%g" -T "DATE=%y" -T "TRACKNUMBER=%n" -T "TOTALTRACKS=%x" -T "GENRE=%m" -T "ALBUMARTIST=%v" -T "ALBUM ARTIST=%v" -T "COMMENT=EAC Secure Mode, Test & Copy, AccurateRip, FLAC -8" %s
TOC of the extracted CD
Track | Start | Length | Start sector | End sector
---------------------------------------------------------
1 | 0:00.00 | 5:15.28 | 0 | 23652
2 | 5:15.28 | 9:25.34 | 23653 | 66061
3 | 14:40.62 | 7:30.07 | 66062 | 99818
4 | 22:10.69 | 9:04.69 | 99819 | 140687
5 | 31:15.63 | 5:08.50 | 140688 | 163837
6 | 36:24.38 | 4:21.32 | 163838 | 183444
7 | 40:45.70 | 12:01.72 | 183445 | 237591
Track 1
Filename C:\MY RIPS\01 - Broken Music.wav
Pre-gap length 0:00:02.00
Peak level 96.5 %
Extraction speed 1.1 X
Track quality 100.0 %
Test CRC 808FDE14
Copy CRC 808FDE14
Accurately ripped (confidence 1) [869C9B43]
Copy OK
Track 2
Filename C:\MY RIPS\02 - Stag.wav
Peak level 96.5 %
Extraction speed 1.4 X
Track quality 100.0 %
Test CRC 506F884C
Copy CRC 506F884C
Accurately ripped (confidence 1) [646F88CF]
Copy OK
Track 3
Filename C:\MY RIPS\03 - When Water Burns Air.wav
Peak level 96.5 %
Extraction speed 1.6 X
Track quality 100.0 %
Test CRC C60B7D34
Copy CRC C60B7D34
Accurately ripped (confidence 1) [A85C169A]
Copy OK
Track 4
Filename C:\MY RIPS\04 - Hand Lettered.wav
Peak level 96.5 %
Extraction speed 1.5 X
Track quality 99.9 %
Test CRC F81AC5BB
Copy CRC F81AC5BB
Accurately ripped (confidence 1) [9EEE41E8]
Copy OK
Track 5
Filename C:\MY RIPS\05 - Dashboard Fire.wav
Peak level 96.5 %
Extraction speed 1.8 X
Track quality 100.0 %
Test CRC 42636029
Copy CRC 42636029
Accurately ripped (confidence 1) [7813E570]
Copy OK
Track 6
Filename C:\MY RIPS\06 - Line Of Lead.wav
Peak level 96.5 %
Extraction speed 1.9 X
Track quality 100.0 %
Test CRC 44534D1A
Copy CRC 44534D1A
Accurately ripped (confidence 1) [DD7D8EA1]
Copy OK
Track 7
Filename C:\MY RIPS\07 - Broken Music 2.wav
Peak level 96.5 %
Extraction speed 2.2 X
Track quality 100.0 %
Test CRC DFA403A6
Copy CRC DFA403A6
Accurately ripped (confidence 1) [9044BA91]
Copy OK
All tracks accurately ripped
No errors occurred
End of status report
==== Log checksum 377ECCD446335B4AA1CF73BB2BCE4F8D0F47817F046F3986BC42A9DB3E368BB4 ====
 
Содержание индексной карты (.CUE)
REM GENRE Jazz
REM DATE 2007
REM DISCID 610C5F07
REM COMMENT "ExactAudioCopy v1.0b1"
PERFORMER "Fire Room"
TITLE "Broken Music"
FILE "01 - Broken Music.wav" WAVE
TRACK 01 AUDIO
TITLE "Broken Music"
PERFORMER "Fire Room"
INDEX 01 00:00:00
FILE "02 - Stag.wav" WAVE
TRACK 02 AUDIO
TITLE "Stag"
PERFORMER "Fire Room"
INDEX 01 00:00:00
FILE "03 - When Water Burns Air.wav" WAVE
TRACK 03 AUDIO
TITLE "When Water Burns Air"
PERFORMER "Fire Room"
INDEX 01 00:00:00
FILE "04 - Hand Lettered.wav" WAVE
TRACK 04 AUDIO
TITLE "Hand Lettered"
PERFORMER "Fire Room"
INDEX 01 00:00:00
FILE "05 - Dashboard Fire.wav" WAVE
TRACK 05 AUDIO
TITLE "Dashboard Fire"
PERFORMER "Fire Room"
INDEX 01 00:00:00
FILE "06 - Line Of Lead.wav" WAVE
TRACK 06 AUDIO
TITLE "Line Of Lead"
PERFORMER "Fire Room"
INDEX 01 00:00:00
FILE "07 - Broken Music 2.wav" WAVE
TRACK 07 AUDIO
TITLE "Broken Music 2"
PERFORMER "Fire Room"
INDEX 01 00:00:00
 
auCDtect Task Manager
-----------------------
DON'T MODIFY THIS FILE
-----------------------
PERFORMER: auCDtect Task Manager, ver. 1.5.1RC6 build 1.5.1.7
Copyright (c) 2008-2010 y-soft. All rights reserved
http://y-soft.org
ANALYZER: auCDtect: CD records authenticity detector, version 0.8.2
Copyright (c) 2004 Oleg Berngardt. All rights reserved.
Copyright (c) 2004 Alexander Djourik. All rights reserved.
FILE: 07 - Broken Music 2.flac
Size: 83500921 Hash: A02E077A8CB59FC0B31CA81661410905 Accuracy: -m0
Conclusion: CDDA 100%
Signature: 7B920AB41F92179859A787E4B8BF25915D88E6AE
FILE: 06 - Line Of Lead.flac
Size: 29145044 Hash: 3D733227DFADA8D86A8C3234CFA3382F Accuracy: -m0
Conclusion: CDDA 100%
Signature: 7A8F284A19FF50E38B76B8CD9424D2BBD2A63EBD
FILE: 05 - Dashboard Fire.flac
Size: 37200561 Hash: 89A591A5AC7A885C24002F107C579D84 Accuracy: -m0
Conclusion: CDDA 99%
Signature: 8AAEFD9ECA6A2D2521B45E0641F36DD7E31D8540
FILE: 04 - Hand Lettered.flac
Size: 59975032 Hash: 4F3D85319170BE0AF546D44E4F8C99AF Accuracy: -m0
Conclusion: CDDA 100%
Signature: D7616B8746508DE455524380C3DEAB0A6A30B5DD
FILE: 03 - When Water Burns Air.flac
Size: 56240172 Hash: 0B215B16DAA7DCF355217DA6FA03F9F3 Accuracy: -m0
Conclusion: CDDA 100%
Signature: 9899BEF1EFFADACBF03E7F2BE69CF8408CACD5B9
FILE: 02 - Stag.flac
Size: 48748073 Hash: 7716DC9660B3CBB72EF5F8EBC2F75DC3 Accuracy: -m0
Conclusion: CDDA 100%
Signature: FDE21AB6E1B981C4C4D9AD8F296362A2FFD0EA22
FILE: 01 - Broken Music.flac
Size: 42456920 Hash: 19B21AF5E572DD5931064DF495FD1B24 Accuracy: -m0
Conclusion: CDDA 100%
Signature: CF4167362C79ED51E7673A831194E1241FD21093
... релизы с участием PAAL NILSSEN-LOVE на трекере ...
Any questions -> support@pro-jazz.com. По всем вопросам пишите -> support@pro-jazz.com
13:56
162
Нет комментариев. Ваш будет первым!