Вы используете незарегистрированную версию компонента "Вкладки"!

Поиск

(Free Improvisation, Avant-Garde Jazz, Creative Sources) [CD] ctrl (Gloria Damijan, Bernd Klug, Meike Melinz, Bernhard Schoeberl, Gabi Teufner) - 25.11 - 2007, FLAC (tracks+.cue), lossless

(Free Improvisation, Avant-Garde Jazz, Creative Sources) [CD] ctrl (Gloria Damijan, Bernd Klug, Meike Melinz, Bernhard Schoeberl, Gabi Teufner) - 25.11 - 2007, FLAC (tracks+.cue), lossless
Треклист:
ctrl / 25.11
Жанр: Free Improvisation, Avant-Garde Jazz, Creative Sources
Носитель: CD
Страна-производитель диска: Portugal
Год издания: 2007
Издатель (лейбл): Creative Sources
Номер по каталогу: cs 099 cd
Страна исполнителя (группы): Austria
Аудиокодек: FLAC (*.flac)
Тип рипа: tracks+.cue
Битрейт аудио: lossless
Продолжительность: 36:30
Источник (релизер): свой фирменный диск
Наличие сканов в содержимом раздачи:
Треклист:
1. BIONIK Supersonic
2. Als wir die Karotten schaelten, vergasen wir den Haferbrei
3. Strg C \ Strg V / Kopieren macht Spass
4. Nie mehr Schilling
5. String Strong Strange
6. Ueblicherweise
7. MOntag bis FReitag
8. Sunburns
9. UUhU
 
Лог создания рипа
Exact Audio Copy V1.0 beta 3 from 29. August 2011
EAC extraction logfile from 17. September 2014, 20:15
ctrl / 25.11
Used drive : PIONEER DVD-RW DVR-115D Adapter: 0 ID: 0
Read mode : Secure
Utilize accurate stream : Yes
Defeat audio cache : Yes
Make use of C2 pointers : No
Read offset correction : 48
Overread into Lead-In and Lead-Out : No
Fill up missing offset samples with silence : Yes
Delete leading and trailing silent blocks : No
Null samples used in CRC calculations : Yes
Used interface : Installed external ASPI interface
Gap handling : Appended to previous track
Used output format : User Defined Encoder
Selected bitrate : 768 kBit/s
Quality : High
Add ID3 tag : No
Command line compressor : C:\Program Files\Exact Audio Copy\Flac\flac.exe
Additional command line options : -6 -V -T "ARTIST=%artist%" -T "TITLE=%title%" -T "ALBUM=%albumtitle%" -T "DATE=%year%" -T "TRACKNUMBER=%tracknr%" -T "GENRE=%genre%" -T "COMMENT=%comment%" -T "BAND=%albuminterpret%" -T "COMPOSER=%composer%" %haslyrics%--tag-from-file=LYRICS="%lyricsfile%"%haslyrics% -T "DISCNUMBER=%cdnumber%" -T "TOTALDISCS=%totalcds%" -T "TOTALTRACKS=%numtracks%" %hascover%--picture="%coverfile%"%hascover% %source% -o %dest%
TOC of the extracted CD
Track | Start | Length | Start sector | End sector
---------------------------------------------------------
1 | 0:00.00 | 3:25.31 | 0 | 15405
2 | 3:25.31 | 2:35.03 | 15406 | 27033
3 | 6:00.34 | 4:19.32 | 27034 | 46490
4 | 10:19.66 | 3:47.17 | 46491 | 63532
5 | 14:07.08 | 5:56.19 | 63533 | 90251
6 | 20:03.27 | 3:09.47 | 90252 | 104473
7 | 23:12.74 | 3:08.01 | 104474 | 118574
8 | 26:21.00 | 5:14.48 | 118575 | 142172
9 | 31:35.48 | 4:54.59 | 142173 | 164281
Track 1
Filename D:\zzz\01 - BIONIK Supersonic.wav
Pre-gap length 0:00:02.00
Peak level 66.0 %
Extraction speed 4.6 X
Track quality 100.0 %
Test CRC 9129F338
Copy CRC 9129F338
Track not present in AccurateRip database
Copy OK
Track 2
Filename D:\zzz\02 - Als Wir Die Karotten Schaelten, Vergasen Wir Den Haferbrei.wav
Peak level 98.8 %
Extraction speed 3.9 X
Track quality 99.9 %
Test CRC A763EE7B
Copy CRC A763EE7B
Track not present in AccurateRip database
Copy OK
Track 3
Filename D:\zzz\03 - Strg C - Strg V , Kopieren Macht Spass.wav
Peak level 78.5 %
Extraction speed 5.4 X
Track quality 100.0 %
Test CRC AAF19274
Copy CRC AAF19274
Track not present in AccurateRip database
Copy OK
Track 4
Filename D:\zzz\04 - Nie Mehr Schilling.wav
Peak level 98.8 %
Extraction speed 5.6 X
Track quality 100.0 %
Test CRC 39732400
Copy CRC 39732400
Track not present in AccurateRip database
Copy OK
Track 5
Filename D:\zzz\05 - String Strong Strange.wav
Peak level 78.5 %
Extraction speed 5.8 X
Track quality 99.9 %
Test CRC 98DD3500
Copy CRC 98DD3500
Track not present in AccurateRip database
Copy OK
Track 6
Filename D:\zzz\06 - Ueblicherweise.wav
Peak level 98.8 %
Extraction speed 6.1 X
Track quality 100.0 %
Test CRC CD984B48
Copy CRC CD984B48
Track not present in AccurateRip database
Copy OK
Track 7
Filename D:\zzz\07 - MOntag bis FReitag.wav
Peak level 74.1 %
Extraction speed 6.3 X
Track quality 100.0 %
Test CRC A4E3E15E
Copy CRC A4E3E15E
Track not present in AccurateRip database
Copy OK
Track 8
Filename D:\zzz\08 - Sunburns.wav
Peak level 98.8 %
Extraction speed 7.1 X
Track quality 100.0 %
Test CRC 2E3B306F
Copy CRC 2E3B306F
Track not present in AccurateRip database
Copy OK
Track 9
Filename D:\zzz\09 - UUhU.wav
Peak level 98.8 %
Extraction speed 6.6 X
Track quality 99.9 %
Test CRC D8590D18
Copy CRC D8590D18
Track not present in AccurateRip database
Copy OK
None of the tracks are present in the AccurateRip database
No errors occurred
End of status report
==== Log checksum 720E093140B2F97DA64BE83251AC9741937BA73873E31ECCC49E686586567B3C ====
 
Содержание индексной карты (.CUE)
REM GENRE "Free Improvisation"
REM DATE 2007
REM DISCID 77088E09
REM COMMENT "ExactAudioCopy v1.0b3"
PERFORMER "ctrl"
TITLE "25.11"
FILE "01 - BIONIK Supersonic.wav" WAVE
TRACK 01 AUDIO
TITLE "BIONIK Supersonic"
PERFORMER "ctrl"
INDEX 01 00:00:00
FILE "02 - Als Wir Die Karotten Schaelten, Vergasen Wir Den Haferbrei.wav" WAVE
TRACK 02 AUDIO
TITLE "Als Wir Die Karotten Schaelten, Vergasen Wir Den Haferbrei"
PERFORMER "ctrl"
INDEX 01 00:00:00
FILE "03 - Strg C - Strg V , Kopieren Macht Spass.wav" WAVE
TRACK 03 AUDIO
TITLE "Strg C \ Strg V / Kopieren Macht Spass"
PERFORMER "ctrl"
INDEX 01 00:00:00
FILE "04 - Nie Mehr Schilling.wav" WAVE
TRACK 04 AUDIO
TITLE "Nie Mehr Schilling"
PERFORMER "ctrl"
INDEX 01 00:00:00
FILE "05 - String Strong Strange.wav" WAVE
TRACK 05 AUDIO
TITLE "String Strong Strange"
PERFORMER "ctrl"
INDEX 01 00:00:00
FILE "06 - Ueblicherweise.wav" WAVE
TRACK 06 AUDIO
TITLE "Ueblicherweise"
PERFORMER "ctrl"
INDEX 01 00:00:00
FILE "07 - MOntag bis FReitag.wav" WAVE
TRACK 07 AUDIO
TITLE "MOntag bis FReitag"
PERFORMER "ctrl"
INDEX 01 00:00:00
FILE "08 - Sunburns.wav" WAVE
TRACK 08 AUDIO
TITLE "Sunburns"
PERFORMER "ctrl"
INDEX 01 00:00:00
FILE "09 - UUhU.wav" WAVE
TRACK 09 AUDIO
TITLE "UUhU"
PERFORMER "ctrl"
INDEX 01 00:00:00
 
Лог проверки качества
d:\>d:\aucdtect -d/-m0 d:\zzz\*.wav
auCDtect: CD records authenticity detector, version 0.8.2
Copyright (c) 2004 Oleg Berngardt. All rights reserved.
Copyright (c) 2004 Alexander Djourik. All rights reserved.
------------------------------------------------------------
Processing file: [01. BIONIK Supersonic.wav]
------------------------------------------------------------
This track looks like CDDA with probability 100%
------------------------------------------------------------
Processing file: [02. Als Wir Die Karotten Schaelten, Vergasen Wir Den Haferbrei.wav]
------------------------------------------------------------
This track looks like CDDA with probability 100%
------------------------------------------------------------
Processing file: [03. Strg C - Strg V - Kopieren Macht Spass.wav]
------------------------------------------------------------
This track looks like CDDA with probability 100%
------------------------------------------------------------
Processing file: [04. Nie Mehr Schilling.wav]
------------------------------------------------------------
This track looks like CDDA with probability 100%
------------------------------------------------------------
Processing file: [05. String Strong Strange.wav]
------------------------------------------------------------
This track looks like CDDA with probability 100%
------------------------------------------------------------
Processing file: [06. Ueblicherweise.wav]
------------------------------------------------------------
This track looks like CDDA with probability 100%
------------------------------------------------------------
Processing file: [07. MOntag bis FReitag.wav]
------------------------------------------------------------
This track looks like CDDA with probability 100%
------------------------------------------------------------
Processing file: [08. Sunburns.wav]
------------------------------------------------------------
This track looks like CDDA with probability 100%
------------------------------------------------------------
Processing file: [09. UUhU.wav]
------------------------------------------------------------
This track looks like CDDA with probability 100%
------------------------------------------------------------
Final Conclusion:
------------------------------------------------------------
These tracks looks like CDDA with probability 100%
Доп. информация:
 
Album Info & Review
Recorded live at Amann-Studios, Vienna, 25.11.2006
Mixed and mastered by Bernd Klug and Martin Siewert at Motone Sound Services, Vienna
Graphic design by Carlos Santos
Production by Ernesto Rodrigues
Liner notes: Burkhard Stangl
Even if during the last year Creative Sources has exponentially augmented the number of its electronic oriented releases it’s still a label mostly renowned for its electro-acoustic/improvisative rooster. This cd is exactly located there in the free republic of improvisers: piano guitar, double bass a pair of flutes involved into the creation of nine sketches of extemporary composition. This ensemble from Vienna works in a quite traditional way even thought the ability of the players demonstrates they’re really able to work together. Considering the kind of ensemble and the way the play together it also reminded me of Civil War. If you imagine one of those recording where you have an over abundance of silence you’re on the wrong lane, they cross the field of improvisation with no hesitation and that without wasting time in notes and extreme loudness, Interesting. — Andrea Ferraris (Chain DLK)
 
Состав
Gloria Damijan: piano
Bernd Klug: doublebass
Meike Melinz: flute
Bernhard Schoeberl: guitar
Gabi Teufner: flute
По всем вопросам пишите личное сообщение пользователю M0p94ok.
06:24
181
Нет комментариев. Ваш будет первым!