Вы используете незарегистрированную версию компонента "Вкладки"!

Поиск

(Free Improvisation / Avant-Garde Jazz) [CD] Sei Miguel (Andre Goncalves, Cesar Burago, Ernesto Rodrigues, Fala Mariam, Kimi Djabat, Luis Desirat, Margarida Garcia ...) - Salvation Modes - 2014 [Clean Feed CF295CD], FLAC (tracks+.cue), lossless

(Free Improvisation / Avant-Garde Jazz) [CD] Sei Miguel (Andre Goncalves, Cesar Burago, Ernesto Rodrigues, Fala Mariam, Kimi Djabat, Luis Desirat, Margarida Garcia ...) - Salvation Modes - 2014 [Clean Feed CF295CD], FLAC (tracks+.cue), lossless
Треклист:
Sei Miguel - Salvation Modes
Жанр: Free Improvisation / Avant-Garde Jazz
Носитель: CD
Страна-производитель диска (релиза): Portugal
Год издания: 2014
Издатель (лейбл): Clean Feed
Номер по каталогу: CF295CD
Аудиокодек: FLAC (*.flac)
Тип рипа: tracks+.cue
Битрейт аудио: lossless
Продолжительность: 00:55:00
Источник (релизер): what.cd / спасибо mameuser
Наличие сканов в содержимом раздачи: нет
Треклист:
1. Prelúdio e Cruz de Sala (27:03)
2. Fermata (09:40)
3. Cantata Mussurana (18:17)
All compositions and arrangements by Sei Miguel
Доп. информация:
Musicians:
Track # 1
Sei Miguel - trumpet
Fala Mariam - trombone
Pedro Gomes - guitar
César Burago - percussion
Track # 2
Sei Miguel - trumpet, finger cymbals
André Gonçalves - hammond manipulation
Margarida Garcia - twin
César Burago - percussion, radio
Track # 3
Sei Miguel - trumpet, direction
Kimi Djabaté - singer
Rafael Toral - modulated feedback
Ernesto Rodrigues - viola
Nuno Torres - alto saxophone
Fala Mariam - alto trombone
Pedro Gomes - guitar
Pedro Lourenço - bass guitar
Luís Desirat - drums
Monsieur Trinité - bandoneon de Osaka, ganzá, afoché
César Burago - bandoneon de Osaka, claves, agogô
Track 1 recorded, edited and mixed at Teatro Maria Matos
Track 2 recorded January 2005 at Musicorde Studios and mixed (summer 2013)
Sei Miguel - Salvation Modes cleanfeed-records.com
Sei Miguel - Salvation Modes freejazzblog.org
Sei Miguel Official Site
Sei Miguel from Wikipedia, the free encyclopedia
 
... back ...
 
... photo ...
 
... reviews ...
Sei Miguel looked dead serious when he told me that in the future he doesn’t plan to write any new music. Instead, he wants to bring to daylight dozens of scores that he has stored for over 30 years on a drawer. Some of this music had been performed a few times live. Some have been performed just once. And most have never seen a stage at all. From this large collection, only a handful have been recorded professionally and these old recordings were not released.
“Salvation Modes” is the first chapter of this long story. Featuring just one recent piece, the record you hold in your hands is Sei’s first push at presenting his well-kept secrets and it is an amazing sample, a well-balanced choice of contrasting material with great sound work.
“Prelúdio,” as fits its title, opens for the explosive “Cruz de Sala”, in a kind of a mantra way. Sei’s Unit Core features Pedro Gomes’ exquisite guitar, as he burns while respecting the pace and space of these tunes. Fala and César have very precise and beautiful lines over the six (ascendant) parts of Cruz de Sala. It starts and closes with much fire.
Listening to “Fermata” is like coming back home to Sei’s more introspective world. It is, in fact, a great introduction to what his work is about, and a sort of deep breath to prepare our ears for what comes later. A cleaning tune so to speak. Don’t mistake this for some kind of tepid music. That’s not at all the case. Common to all his work is the superb use of timbres, picking up the right ingredients to cook the vision he has in mind. This is a great example of the Sei Miguel sound of music. Cool.
“Cantata Mussurana” is based on a creole purification ritual. You can almost see that, as you listen to the varying tensions and intensities in the music. Through the three movements of the Cantata you sense the snake -Mussurana- that is brought to the place where the ceremony will occur. The snake, which is not poisonous, cleans up an entire world of speculation, eating the poisonous snakes and, in the end, bringing safety and peace to the people. This exotic mood is set through the careful orchestration of ten instrumental voices around a human voice.
Such a masterpiece released from this obsessive workaholic, who is playing better than ever, makes us eagerly anticipate the next surprise from his musical treasure chest, revealing just a bit more of his huge course.
~ cleanfeed-records.com
 
Лог создания рипа
X Lossless Decoder version 20140504 (147.0)
XLD extraction logfile from 2014-09-07 20:53:39 +0400
Sei Miguel / Salvation Modes
Used drive : ASUS SDRW-08D2S-U (revision A611)
Media type : Pressed CD
Ripper mode : XLD Secure Ripper
Disable audio cache : OK for the drive with a cache less than 1375KiB
Make use of C2 pointers : NO
Read offset correction : 6
Max retry count : 100
Gap status : Analyzed, Appended (except HTOA)
TOC of the extracted CD
Track | Start | Length | Start sector | End sector
---------------------------------------------------------
1 | 00:00:00 | 27:06:58 | 0 | 122007
2 | 27:06:58 | 09:45:69 | 122008 | 165951
3 | 36:52:52 | 18:16:11 | 165952 | 248162
AccurateRip Summary
Disc not found in AccurateRip DB.
All Tracks
Album gain : -3.33 dB
Peak : 0.977417
Statistics
Read error : 0
Jitter error (maybe fixed) : 0
Retry sector count : 0
Damaged sector count : 0
Track 01
Filename : /Users/Shared/Grabbed/Sei Miguel - 2014 - Salvation Modes [FLAC]/01 - Preludio E Cruz De Sala.flac
Pre-gap length : 00:02:00
Track gain : -0.65 dB
Peak : 0.977386
CRC32 hash (test run) : EFFB7466
CRC32 hash : EFFB7466
CRC32 hash (skip zero) : 933EB0CF
AccurateRip v1 signature : 819002F3
AccurateRip v2 signature : 02745B0D
->Track not present in AccurateRip database.
Statistics
Read error : 0
Jitter error (maybe fixed) : 0
Retry sector count : 0
Damaged sector count : 0
Track 02
Filename : /Users/Shared/Grabbed/Sei Miguel - 2014 - Salvation Modes [FLAC]/02 - Fermata.flac
Pre-gap length : 00:03:00
Track gain : -0.91 dB
Peak : 0.977386
CRC32 hash (test run) : D7A9C605
CRC32 hash : D7A9C605
CRC32 hash (skip zero) : F7C1F8FD
AccurateRip v1 signature : B70C7B62
AccurateRip v2 signature : 69A67309
->Track not present in AccurateRip database.
Statistics
Read error : 0
Jitter error (maybe fixed) : 0
Retry sector count : 0
Damaged sector count : 0
Track 03
Filename : /Users/Shared/Grabbed/Sei Miguel - 2014 - Salvation Modes [FLAC]/03 - Cantata Mussurana.flac
Pre-gap length : 00:05:00
Track gain : -5.35 dB
Peak : 0.977417
CRC32 hash (test run) : FBF0DBC1
CRC32 hash : FBF0DBC1
CRC32 hash (skip zero) : A5A4F3AF
AccurateRip v1 signature : 5FA36409
AccurateRip v2 signature : 752E18C7
->Track not present in AccurateRip database.
Statistics
Read error : 0
Jitter error (maybe fixed) : 0
Retry sector count : 0
Damaged sector count : 0
No errors occurred
End of status report
-----BEGIN XLD SIGNATURE-----
TvsbeDGFlMP4iBmUthdaL7ZkN4yODE3c0RdayfN48ZInkTkBoqtSuMY3G32i9nnrMMs6pKuabvG_ZciHoiVYaX6ZvQredgGS4bK6q5a
-----END XLD SIGNATURE-----
 
Содержание индексной карты (.CUE)
TITLE "Salvation Modes"
PERFORMER "Sei Miguel"
CATALOG 5609063002959
REM GENRE "Free Jazz"
REM DATE "2014"
REM DISCNUMBER 1
REM TOTALDISCS 1
REM DISCID 1C0CEC03
REM REPLAYGAIN_ALBUM_GAIN -3.33 dB
REM REPLAYGAIN_ALBUM_PEAK 0.977417
FILE "01 - Preludio E Cruz De Sala.flac" WAVE
TRACK 01 AUDIO
TITLE "Prelúdio E Cruz De Sala"
PERFORMER "Sei Miguel"
ISRC PTNF11409041
REM COMMENT "2002, 2012 Guitar – Pedro Gomes Percussion – César Burago Trombone – Fala Mariam Trumpet – Sei Miguel"
REM REPLAYGAIN_TRACK_GAIN -0.65 dB
REM REPLAYGAIN_TRACK_PEAK 0.977386
INDEX 01 00:00:00
TRACK 02 AUDIO
TITLE "Fermata"
PERFORMER "Sei Miguel"
ISRC PTNF11409042
REM COMMENT "2005 Double Bass [Twin] – Margarida Garcia Organ [Hammond Manipulation] – André Gonçalves Percussion, Performer [Radio] – César Burago Trumpet – Sei Miguel"
REM REPLAYGAIN_TRACK_GAIN -0.91 dB
REM REPLAYGAIN_TRACK_PEAK 0.977386
INDEX 00 27:03:58
FILE "02 - Fermata.flac" WAVE
INDEX 01 00:00:00
TRACK 03 AUDIO
TITLE "Cantata Mussurana"
PERFORMER "Sei Miguel"
ISRC PTNF11409043
REM COMMENT "1996-2012 Alto Saxophone – Nuno Torres Bandoneon [De Osaka], Claves, Agogô – César Burago Bandoneon [De Osaka], Ganzá, Afoxé – Monsieur Trinité Bass Guitar – Pedro Lourenço Drums – Luis Desirat Guitar – Pedro Gomes Noises [Modulated Feedback] – Rafael Toral Trombone [Alto] – Fala Mariam Trumpet, Conductor – Sei Miguel Viola – Ernesto Rodrigues Voice – Kimi Djabaté"
REM REPLAYGAIN_TRACK_GAIN -5.35 dB
REM REPLAYGAIN_TRACK_PEAK 0.977417
INDEX 00 09:40:69
FILE "03 - Cantata Mussurana.flac" WAVE
INDEX 01 00:00:00
По всем вопросам пишите личное сообщение пользователю M0p94ok.
15:50
237
Нет комментариев. Ваш будет первым!