Вы используете незарегистрированную версию компонента "Вкладки"!

Поиск

(Free Improvisation / Avant-Garde Jazz) [CD] Peter Brötzmann (Brotzmann) & Hamid Drake - Brötzmann / Drake - 2010, FLAC (tracks+.cue), lossless

(Free Improvisation / Avant-Garde Jazz) [CD] Peter Brötzmann (Brotzmann) & Hamid Drake - Brötzmann / Drake - 2010, FLAC (tracks+.cue), lossless
Треклист:
Peter Brötzmann & Hamid Drake - Brötzmann / Drake
Жанр: Free Improvisation / Avant-Garde Jazz
Носитель: CD
Страна-производитель диска (релиза): Germany
Год издания: 2010
Издатель (лейбл): Brö Records
Номер по каталогу: Brö-D
Аудиокодек: FLAC (*.flac)
Тип рипа: tracks+.cue
Битрейт аудио: lossless
Продолжительность: 00:52:30
Источник (релизер): what.cd / спасибо box
Наличие сканов в содержимом раздачи: нет
Треклист:
1. Nr. 1 (15:52)
2. Nr. 2 (18:07)
3. Nr. 3 (11:36)
4. Nr. 4 (07:55)
Доп. информация:
Musicians:
Peter Brötzmann - alto & tenor saxophones, tarogato
Hamid Drake - frame drum, trap kit
Recorded - 09 March 2004, Beachland Ballroom, Cleveland, OH
Peter Brötzmann & Hamid Drake - Brötzmann / Drake eremite.com
Peter Brötzmann Official Site
Peter Brötzmann from Wikipedia, the free encyclopedia
Hamid Drake from Wikipedia, the free encyclopedia
Hamid Drake drummerworld.com
 
... review ...
Iron-lunged German saxophonist Peter Brötzmann's Brö Records has a special history, beginning with his first LPs, For Adolphe Sax and Machine Gun. In 2002, he revived the label with Michael Ehlers of Eremite, reserving it for limited-run special projects. Most of the recordings have been CDs made to sell on specific tours, & they've all presented Brötzmann in duets with drummers, one in 2005 with Nasheet Waits & two for a tour with Han Bennink in 2006. Recorded in 2004 at Cleveland's Beachland Ballroom Tavern, this one features Hamid Drake, a regular Brötzmann partner both in small groups & the Chicago Tentet. Like the previous CDs it's packaged in a hand-printed piece of folded cardboard with a rubber nipple to hold the disc in place. It's as simple & functional as packaging can be & this limited-edition is available only from the musicians on their 2010 tour or from Eremite.
The music, too, is as intense, direct & personal as one expects from Brötzmann: four pieces in which he moves from alto to tarogato to tenor, in constant dialogue with Drake, who is a master at creating the kind of polyrhythmic parade rhythms that Ed Blackwell did so well. Each piece is an exercise in the visceral free improvisation that has always defined Brötzmann's music: initial melodic impulses are reduced to a trill, a wail, a bugle call, a portion of a scale, or a travesty of a traditional ballad. The longest track at 18 minutes, "Nr. 02" is a dialogue for tarogato & frame drum, Drake establishing different pitch patterns & rhythmic figures as Brötzmann creates swirling modal patterns in which the rapid, repeated lines begin to double up into multiphonics before the piece moves to a kenning dirge evocative of the Middle East. "Nr. 03" may be Brötzmann's most powerful statement here, a classic tenor oration that magnifies emotion to an epic scale before Drake enters to supply both sonic backdrop & rhythmic fuel. This is genuinely elemental music, an authentic encounter between two musicians deeply attuned to one another's methods & impulses.
Stuart Broomer ~ Signal To Noise
 
Лог создания рипа
Exact Audio Copy V0.99 prebeta 5 from 4. May 2009
EAC extraction logfile from 12. January 2011, 9:37
Peter Brotzmann and Hamid Drake / Brotzmann-Drake
Used drive : SAMSUNG CDRW/DVD SM-308B Adapter: 0 ID: 0
Read mode : Secure
Utilize accurate stream : Yes
Defeat audio cache : Yes
Make use of C2 pointers : No
Read offset correction : 120
Overread into Lead-In and Lead-Out : No
Fill up missing offset samples with silence : Yes
Delete leading and trailing silent blocks : No
Null samples used in CRC calculations : Yes
Used interface : Native Win32 interface for Win NT & 2000
Gap handling : Appended to previous track
Used output format : User Defined Encoder
Selected bitrate : 192 kBit/s
Quality : High
Add ID3 tag : Yes
Command line compressor : C:\Documents and Settings\jhudak\Desktop\Joe\Exact Audio Copy\FLAC\flac.exe
Additional command line options : -V -8 -T "artist=%a" -T "title=%t" -T "album=%g" -T "date=%y" -T "tracknumber=%n" -T "genre=%m" %s
TOC of the extracted CD
Track | Start | Length | Start sector | End sector
---------------------------------------------------------
1 | 0:00.00 | 15:51.73 | 0 | 71397
2 | 15:51.73 | 18:07.29 | 71398 | 152951
3 | 33:59.27 | 11:36.27 | 152952 | 205178
4 | 45:35.54 | 7:54.54 | 205179 | 240782
Track 1
Filename C:\Documents and Settings\jhudak\Desktop\Joe\Peter Brotzmann and Hamid Drake - Brotzmann-Drake (2010)\Peter Brotzmann and Hamid Drake - 01 - Nr. 01.wav
Pre-gap length 0:00:02.00
Peak level 97.8 %
Track quality 100.0 %
Test CRC DC6C7095
Copy CRC DC6C7095
Accurately ripped (confidence 1) [3EC02583]
Copy OK
Track 2
Filename C:\Documents and Settings\jhudak\Desktop\Joe\Peter Brotzmann and Hamid Drake - Brotzmann-Drake (2010)\Peter Brotzmann and Hamid Drake - 02 - Nr. 02.wav
Peak level 100.0 %
Track quality 100.0 %
Test CRC 2B100D3B
Copy CRC 2B100D3B
Accurately ripped (confidence 1) [8BD71611]
Copy OK
Track 3
Filename C:\Documents and Settings\jhudak\Desktop\Joe\Peter Brotzmann and Hamid Drake - Brotzmann-Drake (2010)\Peter Brotzmann and Hamid Drake - 03 - Nr. 03.wav
Peak level 97.4 %
Track quality 99.9 %
Test CRC 034BA539
Copy CRC 034BA539
Accurately ripped (confidence 1) [97DEBAED]
Copy OK
Track 4
Filename C:\Documents and Settings\jhudak\Desktop\Joe\Peter Brotzmann and Hamid Drake - Brotzmann-Drake (2010)\Peter Brotzmann and Hamid Drake - 04 - Nr. 04.wav
Peak level 98.5 %
Track quality 99.9 %
Test CRC 1B9ACDE5
Copy CRC 1B9ACDE5
Accurately ripped (confidence 1) [03979B4C]
Copy OK
All tracks accurately ripped
No errors occurred
End of status report
 
Содержание индексной карты (.CUE)
REM GENRE Jazz
REM DATE 2010
REM DISCID 2D0C8A04
REM COMMENT "ExactAudioCopy v0.99pb5"
PERFORMER "Peter Brotzmann and Hamid Drake"
TITLE "Brotzmann-Drake"
FILE "01 - Nr. 01.wav" WAVE
TRACK 01 AUDIO
TITLE "Nr. 01"
PERFORMER "Peter Brotzmann and Hamid Drake"
INDEX 01 00:00:00
FILE "02 - Nr. 02.wav" WAVE
TRACK 02 AUDIO
TITLE "Nr. 02"
PERFORMER "Peter Brotzmann and Hamid Drake"
INDEX 01 00:00:00
FILE "03 - Nr. 03.wav" WAVE
TRACK 03 AUDIO
TITLE "Nr. 03"
PERFORMER "Peter Brotzmann and Hamid Drake"
INDEX 01 00:00:00
FILE "04 - Nr. 04.wav" WAVE
TRACK 04 AUDIO
TITLE "Nr. 04"
PERFORMER "Peter Brotzmann and Hamid Drake"
INDEX 01 00:00:00
... релизы с участием HAMID DRAKE на трекере ...
По всем вопросам пишите личное сообщение пользователю M0p94ok.
18:54
202
Нет комментариев. Ваш будет первым!