Вы используете незарегистрированную версию компонента "Вкладки"!

Поиск

(Free Improvisation, Avant-Garde Jazz) [CD] Katharina Weber, Fred Frith, Fredy Studer - It Rolls - 2015 [Intakt Record], FLAC (tracks+.cue), lossless

(Free Improvisation, Avant-Garde Jazz) [CD] Katharina Weber, Fred Frith, Fredy Studer - It Rolls - 2015 [Intakt Record], FLAC (tracks+.cue), lossless
Издатель (лейбл):
Треклист:
katharina ' '' fred ' ' ' ' fredy ' ' ' '
weber ' frith ' studer
it rolls Жанр: Free Improvisation, Avant-Garde Jazz
Страна-производитель диска: EU
Год издания: 2015
Издатель (лейбл): Intakt Records
Номер по каталогу: CD 248
Аудиокодек: FLAC (*.flac)
Тип рипа: tracks+.cue
Битрейт аудио: lossless
Продолжительность: 58:41
Источник (релизер): спасибо dtromp
Наличие сканов: front

1. It Rolls
2. Armen Seelen
3. Weh a Ways Away
4. Wildstrubel
5. Gong
6. Sparsam
7. Gefährten an der Kreuzung
8. Die Sprache der Dinge
9. Spieglein an der Wand
10. Trippen ohne flippen
 
Лог создания рипа
Exact Audio Copy V1.1 from 23. June 2015
EAC extraction logfile from 7. October 2015, 2:52
Katharina Weber, Fred Frith, Fredy Studer / It Rolls
Used drive : ATAPI iHBS112 2 Adapter: 1 ID: 0
Read mode : Secure
Utilize accurate stream : Yes
Defeat audio cache : Yes
Make use of C2 pointers : No
Read offset correction : 6
Overread into Lead-In and Lead-Out : No
Fill up missing offset samples with silence : Yes
Delete leading and trailing silent blocks : No
Null samples used in CRC calculations : Yes
Used interface : Native Win32 interface for Win NT & 2000
Gap handling : Appended to previous track
Used output format : User Defined Encoder
Selected bitrate : 1024 kBit/s
Quality : High
Add ID3 tag : No
Command line compressor : C:\Program Files\Exact Audio Copy\Flac\flac.exe
Additional command line options : -8 -V -T "ARTIST=%artist%" -T "TITLE=%title%" -T "ALBUM=%albumtitle%" -T "DATE=%year%" -T "TRACKNUMBER=%tracknr%" -T "TOTALTRACKS=%numtracks%" -T "GENRE=%genre%" -T "ALBUMARTIST=%albumartist%" -T "ALBUM ARTIST=%albumartist%" -T "COMPOSER=%composer%" -T "PERFORMER=%albuminterpret%" -T "DISCNUMBER=%cdnumber%" -T "TOTALDISCS=%totalcds%" -T "COMMENT=EAC Secure Mode, Test & Copy, AccurateRip, FLAC -8" %source%
TOC of the extracted CD
Track | Start | Length | Start sector | End sector
---------------------------------------------------------
1 | 0:00.00 | 15:02.40 | 0 | 67689
2 | 15:02.40 | 5:03.04 | 67690 | 90418
3 | 20:05.44 | 3:04.11 | 90419 | 104229
4 | 23:09.55 | 1:39.32 | 104230 | 111686
5 | 24:49.12 | 3:36.49 | 111687 | 127935
6 | 28:25.61 | 1:34.71 | 127936 | 135056
7 | 30:00.57 | 9:10.44 | 135057 | 176350
8 | 39:11.26 | 3:56.03 | 176351 | 194053
9 | 43:07.29 | 4:02.47 | 194054 | 212250
10 | 47:10.01 | 9:46.72 | 212251 | 256272
11 | 56:56.73 | 1:44.42 | 256273 | 264114
Track 1
Filename P:\DL\Katharina Weber, Fred Frith, Fredy Studer - It Rolls (2014) [FLAC]\01 - It Rolls.wav
Pre-gap length 0:00:02.00
Peak level 97.7 %
Extraction speed 2.4 X
Track quality 100.0 %
Test CRC 60EBA69F
Copy CRC 60EBA69F
Track not present in AccurateRip database
Copy OK
Track 2
Filename P:\DL\Katharina Weber, Fred Frith, Fredy Studer - It Rolls (2014) [FLAC]\02 - Armen Seelen.wav
Peak level 90.9 %
Extraction speed 2.7 X
Track quality 100.0 %
Test CRC D653E4AD
Copy CRC D653E4AD
Track not present in AccurateRip database
Copy OK
Track 3
Filename P:\DL\Katharina Weber, Fred Frith, Fredy Studer - It Rolls (2014) [FLAC]\03 - Weh A Ways Away.wav
Peak level 100.0 %
Extraction speed 2.7 X
Track quality 100.0 %
Test CRC 44B6717C
Copy CRC 44B6717C
Track not present in AccurateRip database
Copy OK
Track 4
Filename P:\DL\Katharina Weber, Fred Frith, Fredy Studer - It Rolls (2014) [FLAC]\04 - Wildstrubel.wav
Peak level 97.7 %
Extraction speed 2.4 X
Track quality 100.0 %
Test CRC D90BA903
Copy CRC D90BA903
Track not present in AccurateRip database
Copy OK
Track 5
Filename P:\DL\Katharina Weber, Fred Frith, Fredy Studer - It Rolls (2014) [FLAC]\05 - Gong.wav
Peak level 97.7 %
Extraction speed 2.9 X
Track quality 100.0 %
Test CRC 833D27A4
Copy CRC 833D27A4
Track not present in AccurateRip database
Copy OK
Track 6
Filename P:\DL\Katharina Weber, Fred Frith, Fredy Studer - It Rolls (2014) [FLAC]\06 - Sparsam.wav
Peak level 50.2 %
Extraction speed 1.5 X
Track quality 99.8 %
Test CRC 85808377
Copy CRC 85808377
Track not present in AccurateRip database
Copy OK
Track 7
Filename P:\DL\Katharina Weber, Fred Frith, Fredy Studer - It Rolls (2014) [FLAC]\07 - Gefahrten An Der Kreuzung.wav
Peak level 97.7 %
Extraction speed 3.4 X
Track quality 100.0 %
Test CRC 9CF0813E
Copy CRC 9CF0813E
Track not present in AccurateRip database
Copy OK
Track 8
Filename P:\DL\Katharina Weber, Fred Frith, Fredy Studer - It Rolls (2014) [FLAC]\08 - Die Sprache Der Dinge.wav
Peak level 99.9 %
Extraction speed 2.5 X
Track quality 99.9 %
Test CRC F37D3FCB
Copy CRC F37D3FCB
Track not present in AccurateRip database
Copy OK
Track 9
Filename P:\DL\Katharina Weber, Fred Frith, Fredy Studer - It Rolls (2014) [FLAC]\09 - Spieglein An Der Wand.wav
Peak level 97.7 %
Extraction speed 3.5 X
Track quality 100.0 %
Test CRC 273318B1
Copy CRC 273318B1
Track not present in AccurateRip database
Copy OK
Track 10
Filename P:\DL\Katharina Weber, Fred Frith, Fredy Studer - It Rolls (2014) [FLAC]\10 - Trippen Ohne Flippen.wav
Peak level 94.8 %
Extraction speed 3.5 X
Track quality 99.9 %
Test CRC 98233C81
Copy CRC 98233C81
Track not present in AccurateRip database
Copy OK
Track 11
Filename P:\DL\Katharina Weber, Fred Frith, Fredy Studer - It Rolls (2014) [FLAC]\11 - Akelei (Im Garten Der Grosseltern).wav
Peak level 62.7 %
Extraction speed 1.9 X
Track quality 99.8 %
Test CRC F7891FC3
Copy CRC F7891FC3
Track not present in AccurateRip database
Copy OK
None of the tracks are present in the AccurateRip database
No errors occurred
End of status report
---- CUETools DB Plugin V2.1.6
[CTDB TOCID: .asnRqGN92QiO7Br89vjIWzIj1A-] found
Submit result:
Track | CTDB Status
1 | (2/2) Accurately ripped
2 | (2/2) Accurately ripped
3 | (2/2) Accurately ripped
4 | (2/2) Accurately ripped
5 | (2/2) Accurately ripped
6 | (2/2) Accurately ripped
7 | (2/2) Accurately ripped
8 | (2/2) Accurately ripped
9 | (2/2) Accurately ripped
10 | (2/2) Accurately ripped
11 | (2/2) Accurately ripped
==== Log checksum DFC34DD6D85BF3825B14AD0BAE3B5E6242671E5275AF91FBDB50FFC657CA6003 ====
 
Содержание индексной карты (.CUE)
REM GENRE Jazz
REM DATE 2014
REM DISCID 940DC10B
REM COMMENT "ExactAudioCopy v1.1"
PERFORMER "Katharina Weber, Fred Frith, Fredy Studer"
TITLE "It Rolls"
FILE "01 - It Rolls.wav" WAVE
TRACK 01 AUDIO
TITLE "It Rolls"
PERFORMER "Katharina Weber, Fred Frith, Fredy Studer"
FLAGS DCP
INDEX 01 00:00:00
FILE "02 - Armen Seelen.wav" WAVE
TRACK 02 AUDIO
TITLE "Armen Seelen"
PERFORMER "Katharina Weber, Fred Frith, Fredy Studer"
FLAGS DCP
INDEX 01 00:00:00
FILE "03 - Weh A Ways Away.wav" WAVE
TRACK 03 AUDIO
TITLE "Weh A Ways Away"
PERFORMER "Katharina Weber, Fred Frith, Fredy Studer"
FLAGS DCP
INDEX 01 00:00:00
FILE "04 - Wildstrubel.wav" WAVE
TRACK 04 AUDIO
TITLE "Wildstrubel"
PERFORMER "Katharina Weber, Fred Frith, Fredy Studer"
FLAGS DCP
INDEX 01 00:00:00
FILE "05 - Gong.wav" WAVE
TRACK 05 AUDIO
TITLE "Gong"
PERFORMER "Katharina Weber, Fred Frith, Fredy Studer"
FLAGS DCP
INDEX 01 00:00:00
FILE "06 - Sparsam.wav" WAVE
TRACK 06 AUDIO
TITLE "Sparsam"
PERFORMER "Katharina Weber, Fred Frith, Fredy Studer"
FLAGS DCP
INDEX 01 00:00:00
FILE "07 - Gefahrten An Der Kreuzung.wav" WAVE
TRACK 07 AUDIO
TITLE "Gefдhrten An Der Kreuzung"
PERFORMER "Katharina Weber, Fred Frith, Fredy Studer"
FLAGS DCP
INDEX 01 00:00:00
FILE "08 - Die Sprache Der Dinge.wav" WAVE
TRACK 08 AUDIO
TITLE "Die Sprache Der Dinge"
PERFORMER "Katharina Weber, Fred Frith, Fredy Studer"
FLAGS DCP
INDEX 01 00:00:00
FILE "09 - Spieglein An Der Wand.wav" WAVE
TRACK 09 AUDIO
TITLE "Spieglein An Der Wand"
PERFORMER "Katharina Weber, Fred Frith, Fredy Studer"
FLAGS DCP
INDEX 01 00:00:00
FILE "10 - Trippen Ohne Flippen.wav" WAVE
TRACK 10 AUDIO
TITLE "Trippen Ohne Flippen"
PERFORMER "Katharina Weber, Fred Frith, Fredy Studer"
FLAGS DCP
INDEX 01 00:00:00
FILE "11 - Akelei (Im Garten Der Grosseltern).wav" WAVE
TRACK 11 AUDIO
TITLE "Akelei (Im Garten Der Grosseltern)"
PERFORMER "Katharina Weber, Fred Frith, Fredy Studer"
FLAGS DCP
INDEX 01 00:00:00
 
Об альбоме
A new "piano icon" – this is how Fred Frith describes Katharina Weber. For almost thirty years now the classically trained pianist and composer moves within the world of New Music and Improvisation.
Energy and silence – being focussed, aware, yet at the same time relaxed and open. This is exactly the state she also finds important for improvising, Katharina Weber says.
In percussionist Fredy Studer and guitarist Fred Frith, Katharina Weber has evidently found two like-minded partners in this trio who: Studer, the wild Hardcore-Chamber-Music-drummer with a liking for driving grooves and Frith, the multi and poly-lingual sound artist among contemporary guitarists.
Fascinating alongside the complex and often equivocal impression is a discreet kind of awareness of form; a conciseness, clarity and logic which surely originate in the manifold individual experiences of Frith, Studer and Weber in the most diverse musical settings. The fact that from these experiences they have now found a common means of expression and, obviously and above all, a common joy of playing is more than just a stroke of luck!
 
Состав

Katharina Weber - piano
Fred Frith - guitar
Fredy Studer - drums, gong
По всем вопросам пишите личное сообщение пользователю M0p94ok.
16:01
169
Нет комментариев. Ваш будет первым!