Вы используете незарегистрированную версию компонента "Вкладки"!

Поиск

(Free Improvisation / Avant-Garde Jazz) [CD] International Trio (Joachim Badenhorst, Steve Swell, Ziv Ravitz) - Donkere Golven - 2011, FLAC (tracks+.cue), lossless

(Free Improvisation / Avant-Garde Jazz) [CD] International Trio (Joachim Badenhorst, Steve Swell, Ziv Ravitz) - Donkere Golven - 2011, FLAC (tracks+.cue), lossless
Треклист:
International Trio - Donkere Golven
Жанр: Free Improvisation / Avant-Garde Jazz
Носитель: CD
Страна-производитель диска (релиза): Belgium
Год издания: 2011
Издатель (лейбл): W.E.R.F. records
Номер по каталогу: W.E.R.F.095
Аудиокодек: FLAC (*.flac)
Тип рипа: tracks+.cue
Битрейт аудио: lossless
Продолжительность: 00:50:17
Источник (релизер): AvaxHome / all thanks goes to the original releaser !!!
Наличие сканов в содержимом раздачи: да
Треклист:
1. Delirious Walk (03:42)
2. Donkere Golven (05:20)
3. Qara (03:20)
4. Angry Mountain (02:06)
5. Monkey Talk (03:37)
6. Tak Tak (06:45)
7. Bugs in a Box (03:44)
8. Texture #3 (04:52)
9. Evolution (06:55)
10. Different Grades of Decay (04:23)
11. Wind on My Porch (05:45)
Доп. информация:
Musicians:
Joachim Badenhorst - clarinet, bassclarinet, tenor saxophone
Steve Swell - trombone
Ziv Ravitz - drums
Recorded at Douglas St. Music Collective, Brooklyn New York on September 9th 2009 and March 23rd 2010
International Trio - Donkere Golven dewerfrecords.be
Joachim Badenhorst Official Site
Steve Swell Official Site
Ziv Ravitz Official Site
 
... back ...
 
Лог создания рипа
Exact Audio Copy V1.0 beta 3 from 29. August 2011
EAC extraction logfile from 14. March 2014, 19:16
International Trio / Donkere Golven
Used drive : SlimtypeeNAU508 5 Adapter: 1 ID: 0
Read mode : Secure
Utilize accurate stream : Yes
Defeat audio cache : Yes
Make use of C2 pointers : No
Read offset correction : 6
Overread into Lead-In and Lead-Out : No
Fill up missing offset samples with silence : Yes
Delete leading and trailing silent blocks : No
Null samples used in CRC calculations : Yes
Used interface : Native Win32 interface for Win NT & 2000
Gap handling : Appended to previous track
Used output format : User Defined Encoder
Selected bitrate : 768 kBit/s
Quality : High
Add ID3 tag : No
Command line compressor : C:\Program Files (x86)\Exact Audio Copy\Flac\flac.exe
Additional command line options : -8 -V -T "ARTIST=%artist%" -T "TITLE=%title%" -T "ALBUM=%albumtitle%" -T "DATE=%year%" -T "TRACKNUMBER=%tracknr%" -T "TOTALTRACKS=%numtracks%" -T "GENRE=%genre%" -T "ALBUMARTIST=%albumartist%" -T "ALBUM ARTIST=%albumartist%" -T "COMMENT=EAC Secure Mode, Test & Copy, AccurateRip, FLAC -8" %source%
TOC of the extracted CD
Track | Start | Length | Start sector | End sector
---------------------------------------------------------
1 | 0:00.00 | 3:42.52 | 0 | 16701
2 | 3:42.52 | 5:20.43 | 16702 | 40744
3 | 9:03.20 | 3:20.40 | 40745 | 55784
4 | 12:23.60 | 2:06.68 | 55785 | 65302
5 | 14:30.53 | 3:37.15 | 65303 | 81592
6 | 18:07.68 | 6:45.22 | 81593 | 111989
7 | 24:53.15 | 3:44.36 | 111990 | 128825
8 | 28:37.51 | 4:52.26 | 128826 | 150751
9 | 33:30.02 | 6:55.35 | 150752 | 181911
10 | 40:25.37 | 4:23.14 | 181912 | 201650
11 | 44:48.51 | 5:45.18 | 201651 | 227543
Track 1
Filename C:\EAC rips\01 - Delirious Walk.wav
Pre-gap length 0:00:02.00
Peak level 100.0 %
Extraction speed 1.0 X
Track quality 100.0 %
Test CRC B73C54BA
Copy CRC B73C54BA
Track not present in AccurateRip database
Copy OK
Track 2
Filename C:\EAC rips\02 - Donkere Golven.wav
Pre-gap length 0:00:02.00
Peak level 100.0 %
Extraction speed 1.2 X
Track quality 100.0 %
Test CRC 1E8E973A
Copy CRC 1E8E973A
Track not present in AccurateRip database
Copy OK
Track 3
Filename C:\EAC rips\03 - Oara.wav
Peak level 100.0 %
Extraction speed 1.1 X
Track quality 99.9 %
Test CRC B58E28B8
Copy CRC B58E28B8
Track not present in AccurateRip database
Copy OK
Track 4
Filename C:\EAC rips\04 - Angry Mountain.wav
Pre-gap length 0:00:02.00
Peak level 100.0 %
Extraction speed 1.2 X
Track quality 100.0 %
Test CRC F0915592
Copy CRC F0915592
Track not present in AccurateRip database
Copy OK
Track 5
Filename C:\EAC rips\05 - Monkey Talk.wav
Pre-gap length 0:00:02.39
Peak level 100.0 %
Extraction speed 1.4 X
Track quality 100.0 %
Test CRC 552F7B9B
Copy CRC 552F7B9B
Track not present in AccurateRip database
Copy OK
Track 6
Filename C:\EAC rips\06 - Tak Tak.wav
Pre-gap length 0:00:02.00
Peak level 100.0 %
Extraction speed 1.6 X
Track quality 100.0 %
Test CRC 99B16D34
Copy CRC 99B16D34
Track not present in AccurateRip database
Copy OK
Track 7
Filename C:\EAC rips\07 - Bugs in a Box.wav
Pre-gap length 0:00:01.13
Peak level 100.0 %
Extraction speed 1.6 X
Track quality 100.0 %
Test CRC 384F7401
Copy CRC 384F7401
Track not present in AccurateRip database
Copy OK
Track 8
Filename C:\EAC rips\08 - Texture #3.wav
Pre-gap length 0:00:02.00
Peak level 100.0 %
Extraction speed 1.7 X
Track quality 100.0 %
Test CRC B364AA85
Copy CRC B364AA85
Track not present in AccurateRip database
Copy OK
Track 9
Filename C:\EAC rips\09 - Evolution.wav
Pre-gap length 0:00:02.00
Peak level 100.0 %
Extraction speed 1.9 X
Track quality 100.0 %
Test CRC D2711A4E
Copy CRC D2711A4E
Track not present in AccurateRip database
Copy OK
Track 10
Filename C:\EAC rips\10 - Different Grades of Decay.wav
Pre-gap length 0:00:02.00
Peak level 100.0 %
Extraction speed 1.9 X
Track quality 100.0 %
Test CRC 6EC6D06D
Copy CRC 6EC6D06D
Track not present in AccurateRip database
Copy OK
Track 11
Filename C:\EAC rips\11 - Wind on My Porch.wav
Pre-gap length 0:00:00.56
Peak level 100.0 %
Extraction speed 2.1 X
Track quality 100.0 %
Test CRC 15C060ED
Copy CRC 15C060ED
Track not present in AccurateRip database
Copy OK
None of the tracks are present in the AccurateRip database
No errors occurred
End of status report
---- CUETools DB Plugin V2.1.4
[CTDB TOCID: p5IBxdD61tL4apGBNCpNMWtidpQ-] disk not present in database
Submit result: p5IBxdD61tL4apGBNCpNMWtidpQ- has been uploaded
==== Log checksum 9305E53FF46B5D3A1085F32FDEF5B7AD578BB9FCFB1B76BB169AC729527E2453 ====
 
Содержание индексной карты (.CUE)
REM GENRE Jazz
REM DATE 2011
REM DISCID 950BD90B
REM COMMENT "ExactAudioCopy v1.0b3"
PERFORMER "International Trio"
TITLE "Donkere Golven"
FILE "01 - Delirious Walk.wav" WAVE
TRACK 01 AUDIO
TITLE "Delirious Walk"
PERFORMER "International Trio"
INDEX 01 00:00:00
TRACK 02 AUDIO
TITLE "Donkere Golven"
PERFORMER "International Trio"
INDEX 00 03:40:52
FILE "02 - Donkere Golven.wav" WAVE
INDEX 01 00:00:00
FILE "03 - Oara.wav" WAVE
TRACK 03 AUDIO
TITLE "Oara"
PERFORMER "International Trio"
INDEX 01 00:00:00
TRACK 04 AUDIO
TITLE "Angry Mountain"
PERFORMER "International Trio"
INDEX 00 03:18:40
FILE "04 - Angry Mountain.wav" WAVE
INDEX 01 00:00:00
TRACK 05 AUDIO
TITLE "Monkey Talk"
PERFORMER "International Trio"
INDEX 00 02:04:29
FILE "05 - Monkey Talk.wav" WAVE
INDEX 01 00:00:00
TRACK 06 AUDIO
TITLE "Tak Tak"
PERFORMER "International Trio"
INDEX 00 03:35:15
FILE "06 - Tak Tak.wav" WAVE
INDEX 01 00:00:00
TRACK 07 AUDIO
TITLE "Bugs in a Box"
PERFORMER "International Trio"
INDEX 00 06:44:09
FILE "07 - Bugs in a Box.wav" WAVE
INDEX 01 00:00:00
TRACK 08 AUDIO
TITLE "Texture #3"
PERFORMER "International Trio"
INDEX 00 03:42:36
FILE "08 - Texture #3.wav" WAVE
INDEX 01 00:00:00
TRACK 09 AUDIO
TITLE "Evolution"
PERFORMER "International Trio"
INDEX 00 04:50:26
FILE "09 - Evolution.wav" WAVE
INDEX 01 00:00:00
TRACK 10 AUDIO
TITLE "Different Grades of Decay"
PERFORMER "International Trio"
INDEX 00 06:53:35
FILE "10 - Different Grades of Decay.wav" WAVE
INDEX 01 00:00:00
TRACK 11 AUDIO
TITLE "Wind on My Porch"
PERFORMER "International Trio"
INDEX 00 04:22:33
FILE "11 - Wind on My Porch.wav" WAVE
INDEX 01 00:00:00
... релизы с участием STEVE SWELL на трекере ...
По всем вопросам пишите личное сообщение пользователю M0p94ok.
14:09
174
Нет комментариев. Ваш будет первым!