Вы используете незарегистрированную версию компонента "Вкладки"!

Поиск

(Free Improvisation, Avant-Garde Jazz) [CD] Howard Peach (Chris Speed, Simon Jermyn, Lander Gyselinck) - Howard Peach - 2015, FLAC (tracks+.cue), lossless

(Free Improvisation, Avant-Garde Jazz) [CD] Howard Peach (Chris Speed, Simon Jermyn, Lander Gyselinck) - Howard Peach - 2015, FLAC (tracks+.cue), lossless
Треклист:
HOWARD PEACH

Жанр: Free Improvisation, Avant-Garde Jazz
Страна-производитель диска : EU
Год издания: 2015
Издатель (лейбл): WERF Records / el Negocito Records
Номер по каталогу: W.E.R.F.129 / eNR028
Страна исполнителя: USA/Ireland/Belgium
Аудиокодек: FLAC (*.flac)
Тип рипа: tracks+.cue
Битрейт аудио: lossless
Продолжительность: 33:53
Источник (релизер): спасибо Wafflemancer
Наличие сканов: нет
Треклист:
1. Lausanne
2. Unfortunate Vivisepulture
3. Hidden Word
4. Chris The Crafty Cockney
5. Sycamore Sea
6. Atlantis 1987
 
Лог создания рипа
X Lossless Decoder version 20151128 (149.0)
XLD extraction logfile from 2015-12-10 21:24:18 +0100
Howard Peach / Howard Peach
Used drive : MATSHITA DVD-R UJ-898 (revision HC09)
Media type : Pressed CD
Ripper mode : XLD Secure Ripper
Disable audio cache : OK for the drive with a cache less than 1375KiB
Make use of C2 pointers : NO
Read offset correction : 102
Max retry count : 100
Gap status : Analyzed, Appended (except HTOA)
TOC of the extracted CD
Track | Start | Length | Start sector | End sector
---------------------------------------------------------
1 | 00:00:00 | 09:51:44 | 0 | 44368
2 | 09:51:44 | 03:47:62 | 44369 | 61455
3 | 13:39:31 | 07:11:37 | 61456 | 93817
4 | 20:50:68 | 05:14:37 | 93818 | 117404
5 | 26:05:30 | 03:59:36 | 117405 | 135365
6 | 30:04:66 | 03:49:07 | 135366 | 152547
AccurateRip Summary (DiscID: 00093b22-002f89ac-4a07f106)
Track 01 : OK (v2, confidence 1/1)
Track 02 : OK (v2, confidence 1/1)
Track 03 : OK (v2, confidence 1/1)
Track 04 : OK (v2, confidence 1/1)
Track 05 : OK (v2, confidence 1/1)
Track 06 : OK (v2, confidence 1/1)
->All tracks accurately ripped.
All Tracks
Album gain : -3.36 dB
Peak : 0.981598
Statistics
Read error : 0
Jitter error (maybe fixed) : 0
Retry sector count : 0
Damaged sector count : 0
Track 01
Filename : /Users/Tournaye/Music/CD RIPs/Howard Peach - Howard Peach (2015) [FLAC]/01 Lausanne.flac
Pre-gap length : 00:02:00
Track gain : -1.89 dB
Peak : 0.981598
CRC32 hash (test run) : 90862122
CRC32 hash : 90862122
CRC32 hash (skip zero) : 626245B5
AccurateRip v1 signature : 173A878D
AccurateRip v2 signature : 229F5E6B
->Accurately ripped (v2, confidence 1/1)
Statistics
Read error : 0
Jitter error (maybe fixed) : 0
Retry sector count : 0
Damaged sector count : 0
Track 02
Filename : /Users/Tournaye/Music/CD RIPs/Howard Peach - Howard Peach (2015) [FLAC]/02 Unfortunate Vivisepulture.flac
Track gain : -0.43 dB
Peak : 0.958801
CRC32 hash (test run) : 316858C8
CRC32 hash : 316858C8
CRC32 hash (skip zero) : 161449A1
AccurateRip v1 signature : 69464038
AccurateRip v2 signature : 9669253C
->Accurately ripped (v2, confidence 1/1)
Statistics
Read error : 0
Jitter error (maybe fixed) : 0
Retry sector count : 0
Damaged sector count : 0
Track 03
Filename : /Users/Tournaye/Music/CD RIPs/Howard Peach - Howard Peach (2015) [FLAC]/03 Hidden Word.flac
Track gain : -3.80 dB
Peak : 0.981598
CRC32 hash (test run) : A9BBFC9D
CRC32 hash : A9BBFC9D
CRC32 hash (skip zero) : F3EC2C4A
AccurateRip v1 signature : 8116F42C
AccurateRip v2 signature : FDB23210
->Accurately ripped (v2, confidence 1/1)
Statistics
Read error : 0
Jitter error (maybe fixed) : 0
Retry sector count : 0
Damaged sector count : 0
Track 04
Filename : /Users/Tournaye/Music/CD RIPs/Howard Peach - Howard Peach (2015) [FLAC]/04 Chris The Crafty Cockney.flac
Track gain : -4.74 dB
Peak : 0.981323
CRC32 hash (test run) : 42A52648
CRC32 hash : 42A52648
CRC32 hash (skip zero) : 279B33C2
AccurateRip v1 signature : F17CD7A5
AccurateRip v2 signature : 1F6A2A81
->Accurately ripped (v2, confidence 1/1)
Statistics
Read error : 0
Jitter error (maybe fixed) : 0
Retry sector count : 0
Damaged sector count : 0
Track 05
Filename : /Users/Tournaye/Music/CD RIPs/Howard Peach - Howard Peach (2015) [FLAC]/05 Sycamore Sea.flac
Track gain : -3.53 dB
Peak : 0.981598
CRC32 hash (test run) : 4395E601
CRC32 hash : 4395E601
CRC32 hash (skip zero) : 7EEFEDB4
AccurateRip v1 signature : 84CFA37E
AccurateRip v2 signature : 7C84F319
->Accurately ripped (v2, confidence 1/1)
Statistics
Read error : 0
Jitter error (maybe fixed) : 0
Retry sector count : 0
Damaged sector count : 0
Track 06
Filename : /Users/Tournaye/Music/CD RIPs/Howard Peach - Howard Peach (2015) [FLAC]/06 Atlantis 1987.flac
Track gain : -3.74 dB
Peak : 0.981598
CRC32 hash (test run) : 94E36015
CRC32 hash : 94E36015
CRC32 hash (skip zero) : 9A44DCE8
AccurateRip v1 signature : B4C1A722
AccurateRip v2 signature : 6660D511
->Accurately ripped (v2, confidence 1/1)
Statistics
Read error : 0
Jitter error (maybe fixed) : 0
Retry sector count : 0
Damaged sector count : 0
No errors occurred
End of status report
-----BEGIN XLD SIGNATURE-----
3vnnlyivcKcYg1LTgk2UAa4AG4bFvg.6mOo5nT7xjE7nsHbVPD.VK5oQvnCIrnpYe8Tk5i3pg7IEsKM74ocJeYQPNKd1mDn2BmADpB0
-----END XLD SIGNATURE-----
 
Содержание индексной карты (.CUE)
TITLE "Howard Peach"
PERFORMER "Howard Peach"
REM GENRE "Jazz"
REM DATE "2015"
REM DISCNUMBER 1
REM TOTALDISCS 1
REM DISCID 4A07F106
REM REPLAYGAIN_ALBUM_GAIN -3.36 dB
REM REPLAYGAIN_ALBUM_PEAK 0.981598
FILE "01 Lausanne.flac" WAVE
TRACK 01 AUDIO
TITLE "Lausanne"
SONGWRITER "Howard Peach"
ISRC BET711400118
REM REPLAYGAIN_TRACK_GAIN -1.89 dB
REM REPLAYGAIN_TRACK_PEAK 0.981598
INDEX 01 00:00:00
FILE "02 Unfortunate Vivisepulture.flac" WAVE
TRACK 02 AUDIO
TITLE "Unfortunate Vivisepulture"
SONGWRITER "Howard Peach"
ISRC BET711400119
REM REPLAYGAIN_TRACK_GAIN -0.43 dB
REM REPLAYGAIN_TRACK_PEAK 0.958801
INDEX 01 00:00:00
FILE "03 Hidden Word.flac" WAVE
TRACK 03 AUDIO
TITLE "Hidden Word"
SONGWRITER "Howard Peach"
ISRC BET711400120
REM REPLAYGAIN_TRACK_GAIN -3.80 dB
REM REPLAYGAIN_TRACK_PEAK 0.981598
INDEX 01 00:00:00
FILE "04 Chris The Crafty Cockney.flac" WAVE
TRACK 04 AUDIO
TITLE "Chris The Crafty Cockney"
SONGWRITER "Howard Peach"
ISRC BET711400121
REM REPLAYGAIN_TRACK_GAIN -4.74 dB
REM REPLAYGAIN_TRACK_PEAK 0.981323
INDEX 01 00:00:00
FILE "05 Sycamore Sea.flac" WAVE
TRACK 05 AUDIO
TITLE "Sycamore Sea"
SONGWRITER "Howard Peach"
ISRC BET711400122
REM REPLAYGAIN_TRACK_GAIN -3.53 dB
REM REPLAYGAIN_TRACK_PEAK 0.981598
INDEX 01 00:00:00
FILE "06 Atlantis 1987.flac" WAVE
TRACK 06 AUDIO
TITLE "Atlantis 1987"
SONGWRITER "Howard Peach"
ISRC BET711400123
REM REPLAYGAIN_TRACK_GAIN -3.74 dB
REM REPLAYGAIN_TRACK_PEAK 0.981598
INDEX 01 00:00:00
 
Об альбоме
Howard Peach was created in New York, where Belgian drummer Lander Gyselinck (STUFF., LABtrio, Ragini Trio, Kris Defoort Trio, …) lived and studied for some time. He met numerous musical soulmates in the contemporary jazz scene and played amongst others along side John Zorn in his infamous club The Stone .
Besides taking part in these NY sessions and jams, Lander co-founded there a brand new trio, with young hidden treasure Irish bassist Simon Jermyn (Large Detective, Pete Robbins Transatlantic Quartet, Jim Black, Tony Malaby) and renowned saxophonist among musicians and composer Chris Speed (The Claudia Quintet, Endangered Blood, AlasnoAxis, Craig Taborn and Dave King). After several live sessions they decided at the end of 2013 to spend some time in the NYU studios and record this self-titled debut. Their busy tour schedules made them put the music on ice, but today with this release and the associated tour they pick up the thread where they’ve began.
Although the repertoire is made up of pure improvisation, the music sounds like a coherent whole and plays the album as one long suite. Very free moments alternate with pieces that sound like composed music, what the tremendous quality of these three solid improvisers betray.
Recording: Amandine Pras & Nic Pitman at NYU, New York, US in december 2013.
 
Состав
Chris Speed - tenor saxophone
Simon Jermyn - electric bass
Lander Gyselinck - drums
По всем вопросам пишите личное сообщение пользователю M0p94ok.
17:39
142
Нет комментариев. Ваш будет первым!