Поиск

(Free Improvisation, Avant-Garde Jazz) [CD] George Lewis, Miya Masaoka - The Usual Turmoil and Other Duets - 1998, FLAC (tracks+.cue), lossless

(Free Improvisation, Avant-Garde Jazz) [CD] George Lewis, Miya Masaoka - The Usual Turmoil and Other Duets - 1998, FLAC (tracks+.cue), lossless
Треклист:
George Lewis, Miya Masaoka / The Usual Turmoil and Other Duets
Жанр: Free Improvisation, Avant-Garde Jazz
Носитель: CD
Страна-производитель диска (релиза): USA
Год издания: 1998
Издатель (лейбл): Music And Arts Programs Of America
Номер по каталогу: CD-1023
Страна исполнителя (группы): USA
Аудиокодек: FLAC (*.flac)
Тип рипа: tracks+.cue
Битрейт аудио: lossless
Продолжительность: 01:05:59
Источник (релизер): template
Наличие сканов в содержимом раздачи: front
Треклист:
01. The Usual Turmoil - 5:20
02. The Lion's Sin - 4:00
03. The New Doctrine - 4:36
04. The Price Of Survival - 3:13
05. Mande (Oldest Language In The World) - 2:43
06. I Remember Chicago - 4:53
07. A Thousand Subtle Ways - 5:29
08. Harbor The Desire - 5:14
09. Swahili Is Spoken - 3:13
10. The Gun, The Knife And Try To Forget - 4:08
11. Live Duet No. 1 - 10:11
12. Live Duet No. 2 - 11:58
Tracks 1–10 - 1997 studio recordings
Tracks 11–12 - Recorded live at Koncepts Cultural Gallery, Oakland Museum, Feb. 1, 1997
Produced by Masaoka and Lewis
Edited by Maggi Payne
Cover painting: Wassily Kandinsky, "Mit dem scwarzen Bogen", 1912
 
AllMusic Review by Steve Loewy
George Lewis records so infrequently as a leader that any new release featuring him on trombone is itself an event. Here, he is featured on trombone in a series of duets with kotoist Miya Masaoka. (Masaoka's koto is a sort of modified Japanese zither.) The results, as expected, are superb, as Lewis and Masaoka negotiate twelve improvised pieces, swerving, interacting, bouncing, and complementing each other in spectacular ways. Lewis is up to his usual bag of tricks, totally dominating his horn with rapid displays of notes bursting forth like shooting stars, extremely precise phrasing, and extended range. Masaoka is a fine dueling partner, stroking her koto in different avenues, jabbing here and there with atonal forays. While the sound quality suffers a bit on the two lengthy live numbers, Lewis fans will nonetheless savor the extended 'bone solos, not to mention the outstanding koto work of Masaoka.
 
Состав
George Lewis - Trombone
Miya Masaoka - Koto
 
Лог создания рипа
X Lossless Decoder version 20151214 (149.1)
XLD extraction logfile from 2016-05-15 04:21:19 -0500
George Lewis, Miya Masaoka / The Usual Turmoil and Other Duets
Used drive : MATSHITA DVD-R UJ-8A8 (revision HB14)
Media type : Pressed CD
Ripper mode : XLD Secure Ripper
Disable audio cache : OK for the drive with a cache less than 1375KiB
Make use of C2 pointers : NO
Read offset correction : 102
Max retry count : 100
Gap status : Analyzed, Appended (except HTOA)
TOC of the extracted CD
Track | Start | Length | Start sector | End sector
---------------------------------------------------------
1 | 00:00:00 | 05:26:60 | 0 | 24509
2 | 05:26:60 | 04:04:30 | 24510 | 42839
3 | 09:31:15 | 04:42:05 | 42840 | 63994
4 | 14:13:20 | 03:19:35 | 63995 | 78954
5 | 17:32:55 | 02:45:50 | 78955 | 91379
6 | 20:18:30 | 05:01:12 | 91380 | 113966
7 | 25:19:42 | 05:33:33 | 113967 | 138974
8 | 30:53:00 | 05:17:62 | 138975 | 162811
9 | 36:10:62 | 03:18:30 | 162812 | 177691
10 | 39:29:17 | 04:13:38 | 177692 | 196704
11 | 43:42:55 | 10:15:32 | 196705 | 242861
12 | 53:58:12 | 12:00:38 | 242862 | 296899
AccurateRip Summary (DiscID: 0018e569-00ebfebc-8b0f760c)
Track 01 : OK (v1+v2, confidence 2/2)
Track 02 : OK (v1+v2, confidence 2/2)
Track 03 : OK (v1+v2, confidence 2/2)
Track 04 : OK (v1+v2, confidence 2/2)
Track 05 : OK (v1+v2, confidence 2/2)
Track 06 : OK (v1+v2, confidence 2/2)
Track 07 : OK (v1+v2, confidence 2/2)
Track 08 : OK (v1+v2, confidence 2/2)
Track 09 : OK (v1+v2, confidence 2/2)
Track 10 : OK (v1+v2, confidence 2/2)
Track 11 : OK (v1+v2, confidence 2/2)
Track 12 : OK (v1+v2, confidence 2/2)
->All tracks accurately ripped.
All Tracks
Album gain : 3.53 dB
Peak : 1.000000
Statistics
Read error : 0
Jitter error (maybe fixed) : 0
Retry sector count : 0
Damaged sector count : 0
Track 01
Filename : /Users/jonahMBP/Music/XLD rips/George Lewis, Miya Masaoka - The Usual Turmoil and Other Duets (1998) [FLAC]/01 The Usual Turmoil.flac
Pre-gap length : 00:02:00
Track gain : 1.71 dB
Peak : 0.774902
CRC32 hash (test run) : 892C2D54
CRC32 hash : 892C2D54
CRC32 hash (skip zero) : EA9864F9
AccurateRip v1 signature : 15D904C2
AccurateRip v2 signature : D9C6EF8E
->Accurately ripped (v1+v2, confidence 1+1/2)
Statistics
Read error : 0
Jitter error (maybe fixed) : 0
Retry sector count : 0
Damaged sector count : 0
Track 02
Filename : /Users/jonahMBP/Music/XLD rips/George Lewis, Miya Masaoka - The Usual Turmoil and Other Duets (1998) [FLAC]/02 The Lion's Sin.flac
Pre-gap length : 00:06:48
Track gain : 1.31 dB
Peak : 1.000000
CRC32 hash (test run) : 488F3973
CRC32 hash : 488F3973
CRC32 hash (skip zero) : 04419C06
AccurateRip v1 signature : 3BA0D5EF
AccurateRip v2 signature : DE9D643D
->Accurately ripped (v1+v2, confidence 1+1/2)
Statistics
Read error : 0
Jitter error (maybe fixed) : 0
Retry sector count : 0
Damaged sector count : 0
Track 03
Filename : /Users/jonahMBP/Music/XLD rips/George Lewis, Miya Masaoka - The Usual Turmoil and Other Duets (1998) [FLAC]/03 The New Doctrine.flac
Pre-gap length : 00:05:03
Track gain : 6.05 dB
Peak : 0.893616
CRC32 hash (test run) : 96CFEFA1
CRC32 hash : 96CFEFA1
CRC32 hash (skip zero) : 73DE08EB
AccurateRip v1 signature : B6F309AA
AccurateRip v2 signature : 643EA568
->Accurately ripped (v1+v2, confidence 1+1/2)
Statistics
Read error : 0
Jitter error (maybe fixed) : 0
Retry sector count : 0
Damaged sector count : 0
Track 04
Filename : /Users/jonahMBP/Music/XLD rips/George Lewis, Miya Masaoka - The Usual Turmoil and Other Duets (1998) [FLAC]/04 The Price of Survival.flac
Pre-gap length : 00:07:08
Track gain : 3.27 dB
Peak : 0.468750
CRC32 hash (test run) : 493D2619
CRC32 hash : 493D2619
CRC32 hash (skip zero) : B6B6096F
AccurateRip v1 signature : CD34E0E5
AccurateRip v2 signature : D022E316
->Accurately ripped (v1+v2, confidence 1+1/2)
Statistics
Read error : 0
Jitter error (maybe fixed) : 0
Retry sector count : 0
Damaged sector count : 0
Track 05
Filename : /Users/jonahMBP/Music/XLD rips/George Lewis, Miya Masaoka - The Usual Turmoil and Other Duets (1998) [FLAC]/05 Mande.flac
Pre-gap length : 00:06:43
Track gain : 6.63 dB
Peak : 1.000000
CRC32 hash (test run) : A08AB816
CRC32 hash : A08AB816
CRC32 hash (skip zero) : BB263325
AccurateRip v1 signature : D40D41FD
AccurateRip v2 signature : 41ED6AE4
->Accurately ripped (v1+v2, confidence 1+1/2)
Statistics
Read error : 0
Jitter error (maybe fixed) : 0
Retry sector count : 0
Damaged sector count : 0
Track 06
Filename : /Users/jonahMBP/Music/XLD rips/George Lewis, Miya Masaoka - The Usual Turmoil and Other Duets (1998) [FLAC]/06 I Remember Chicago.flac
Pre-gap length : 00:03:18
Track gain : 1.92 dB
Peak : 0.905731
CRC32 hash (test run) : CE822FB9
CRC32 hash : CE822FB9
CRC32 hash (skip zero) : 8ADB9C0A
AccurateRip v1 signature : 131306F4
AccurateRip v2 signature : 14130AA4
->Accurately ripped (v1+v2, confidence 1+1/2)
Statistics
Read error : 0
Jitter error (maybe fixed) : 0
Retry sector count : 0
Damaged sector count : 0
Track 07
Filename : /Users/jonahMBP/Music/XLD rips/George Lewis, Miya Masaoka - The Usual Turmoil and Other Duets (1998) [FLAC]/07 A Thousand Subtle Ways.flac
Pre-gap length : 00:08:30
Track gain : 8.65 dB
Peak : 0.379578
CRC32 hash (test run) : 01B7BB42
CRC32 hash : 01B7BB42
CRC32 hash (skip zero) : A7060971
AccurateRip v1 signature : A3CEABF1
AccurateRip v2 signature : AB295A12
->Accurately ripped (v1+v2, confidence 1+1/2)
Statistics
Read error : 0
Jitter error (maybe fixed) : 0
Retry sector count : 0
Damaged sector count : 0
Track 08
Filename : /Users/jonahMBP/Music/XLD rips/George Lewis, Miya Masaoka - The Usual Turmoil and Other Duets (1998) [FLAC]/08 Harbor the Desire.flac
Pre-gap length : 00:04:63
Track gain : 2.75 dB
Peak : 0.765137
CRC32 hash (test run) : 1DFA972F
CRC32 hash : 1DFA972F
CRC32 hash (skip zero) : 84CD270D
AccurateRip v1 signature : 29C10C35
AccurateRip v2 signature : 251DA6DA
->Accurately ripped (v1+v2, confidence 1+1/2)
Statistics
Read error : 0
Jitter error (maybe fixed) : 0
Retry sector count : 0
Damaged sector count : 0
Track 09
Filename : /Users/jonahMBP/Music/XLD rips/George Lewis, Miya Masaoka - The Usual Turmoil and Other Duets (1998) [FLAC]/09 Swahili is Spoken.flac
Pre-gap length : 00:04:50
Track gain : 8.05 dB
Peak : 0.475433
CRC32 hash (test run) : 10567752
CRC32 hash : 10567752
CRC32 hash (skip zero) : 13ABC844
AccurateRip v1 signature : AD392D8E
AccurateRip v2 signature : BD6B7123
->Accurately ripped (v1+v2, confidence 1+1/2)
Statistics
Read error : 0
Jitter error (maybe fixed) : 0
Retry sector count : 0
Damaged sector count : 0
Track 10
Filename : /Users/jonahMBP/Music/XLD rips/George Lewis, Miya Masaoka - The Usual Turmoil and Other Duets (1998) [FLAC]/10 The Gun, The Knife and Try to Forget.flac
Pre-gap length : 00:06:05
Track gain : -0.09 dB
Peak : 0.999969
CRC32 hash (test run) : 21783ED4
CRC32 hash : 21783ED4
CRC32 hash (skip zero) : 37B367E2
AccurateRip v1 signature : 3BACB15F
AccurateRip v2 signature : DD19470C
->Accurately ripped (v1+v2, confidence 1+1/2)
Statistics
Read error : 0
Jitter error (maybe fixed) : 0
Retry sector count : 0
Damaged sector count : 0
Track 11
Filename : /Users/jonahMBP/Music/XLD rips/George Lewis, Miya Masaoka - The Usual Turmoil and Other Duets (1998) [FLAC]/11 Live Duet No. 1.flac
Pre-gap length : 00:05:43
Track gain : 8.54 dB
Peak : 0.742981
CRC32 hash (test run) : FECEAC54
CRC32 hash : FECEAC54
CRC32 hash (skip zero) : 99F56943
AccurateRip v1 signature : 3F86E799
AccurateRip v2 signature : 44E2E90C
->Accurately ripped (v1+v2, confidence 1+1/2)
Statistics
Read error : 0
Jitter error (maybe fixed) : 0
Retry sector count : 0
Damaged sector count : 0
Track 12
Filename : /Users/jonahMBP/Music/XLD rips/George Lewis, Miya Masaoka - The Usual Turmoil and Other Duets (1998) [FLAC]/12 Live Duet No. 2.flac
Pre-gap length : 00:02:50
Track gain : 8.35 dB
Peak : 0.988190
CRC32 hash (test run) : 38EB9690
CRC32 hash : 38EB9690
CRC32 hash (skip zero) : 1F549BA2
AccurateRip v1 signature : C15E3282
AccurateRip v2 signature : 00135C95
->Accurately ripped (v1+v2, confidence 1+1/2)
Statistics
Read error : 0
Jitter error (maybe fixed) : 0
Retry sector count : 0
Damaged sector count : 0
No errors occurred
End of status report
-----BEGIN XLD SIGNATURE-----
L3XhTgcBRS1YCMiRkXchXvfxSVoy0SNgs8ezSiCQe_mD76A4l4X3uouyhbmMUg3HMdwlZvQthoUhRP4dmNGFZo0OebslznHTpwEcRaq
-----END XLD SIGNATURE-----
 
Содержание индексной карты (.CUE)
TITLE "The Usual Turmoil and Other Duets"
PERFORMER "George Lewis, Miya Masaoka"
REM GENRE "Experimental"
REM DATE "1998"
REM DISCID 8B0F760C
REM REPLAYGAIN_ALBUM_GAIN 3.53 dB
REM REPLAYGAIN_ALBUM_PEAK 1.000000
FILE "01 The Usual Turmoil.flac" WAVE
TRACK 01 AUDIO
TITLE "The Usual Turmoil"
SONGWRITER "George Lewis/Miya Masaoka"
FLAGS DCP
REM REPLAYGAIN_TRACK_GAIN 1.71 dB
REM REPLAYGAIN_TRACK_PEAK 0.774902
INDEX 01 00:00:00
TRACK 02 AUDIO
TITLE "The Lion's Sin"
SONGWRITER "George Lewis/Miya Masaoka"
FLAGS DCP
REM REPLAYGAIN_TRACK_GAIN 1.31 dB
REM REPLAYGAIN_TRACK_PEAK 1.000000
INDEX 00 05:20:12
FILE "02 The Lion's Sin.flac" WAVE
INDEX 01 00:00:00
TRACK 03 AUDIO
TITLE "The New Doctrine"
SONGWRITER "George Lewis/Miya Masaoka"
FLAGS DCP
REM REPLAYGAIN_TRACK_GAIN 6.05 dB
REM REPLAYGAIN_TRACK_PEAK 0.893616
INDEX 00 03:59:27
FILE "03 The New Doctrine.flac" WAVE
INDEX 01 00:00:00
TRACK 04 AUDIO
TITLE "The Price of Survival"
SONGWRITER "George Lewis/Miya Masaoka"
FLAGS DCP
REM REPLAYGAIN_TRACK_GAIN 3.27 dB
REM REPLAYGAIN_TRACK_PEAK 0.468750
INDEX 00 04:34:72
FILE "04 The Price of Survival.flac" WAVE
INDEX 01 00:00:00
TRACK 05 AUDIO
TITLE "Mande"
SONGWRITER "George Lewis/Miya Masaoka"
FLAGS DCP
REM REPLAYGAIN_TRACK_GAIN 6.63 dB
REM REPLAYGAIN_TRACK_PEAK 1.000000
INDEX 00 03:12:67
FILE "05 Mande.flac" WAVE
INDEX 01 00:00:00
TRACK 06 AUDIO
TITLE "I Remember Chicago"
SONGWRITER "George Lewis/Miya Masaoka"
FLAGS DCP
REM REPLAYGAIN_TRACK_GAIN 1.92 dB
REM REPLAYGAIN_TRACK_PEAK 0.905731
INDEX 00 02:42:32
FILE "06 I Remember Chicago.flac" WAVE
INDEX 01 00:00:00
TRACK 07 AUDIO
TITLE "A Thousand Subtle Ways"
SONGWRITER "George Lewis/Miya Masaoka"
FLAGS DCP
REM REPLAYGAIN_TRACK_GAIN 8.65 dB
REM REPLAYGAIN_TRACK_PEAK 0.379578
INDEX 00 04:52:57
FILE "07 A Thousand Subtle Ways.flac" WAVE
INDEX 01 00:00:00
TRACK 08 AUDIO
TITLE "Harbor the Desire"
SONGWRITER "George Lewis/Miya Masaoka"
FLAGS DCP
REM REPLAYGAIN_TRACK_GAIN 2.75 dB
REM REPLAYGAIN_TRACK_PEAK 0.765137
INDEX 00 05:28:45
FILE "08 Harbor the Desire.flac" WAVE
INDEX 01 00:00:00
TRACK 09 AUDIO
TITLE "Swahili is Spoken"
SONGWRITER "George Lewis/Miya Masaoka"
FLAGS DCP
REM REPLAYGAIN_TRACK_GAIN 8.05 dB
REM REPLAYGAIN_TRACK_PEAK 0.475433
INDEX 00 05:13:12
FILE "09 Swahili is Spoken.flac" WAVE
INDEX 01 00:00:00
TRACK 10 AUDIO
TITLE "The Gun, The Knife and Try to Forget"
SONGWRITER "George Lewis/Miya Masaoka"
FLAGS DCP
REM REPLAYGAIN_TRACK_GAIN -0.09 dB
REM REPLAYGAIN_TRACK_PEAK 0.999969
INDEX 00 03:12:25
FILE "10 The Gun, The Knife and Try to Forget.flac" WAVE
INDEX 01 00:00:00
TRACK 11 AUDIO
TITLE "Live Duet No. 1"
SONGWRITER "George Lewis/Miya Masaoka"
FLAGS DCP
REM REPLAYGAIN_TRACK_GAIN 8.54 dB
REM REPLAYGAIN_TRACK_PEAK 0.742981
INDEX 00 04:07:70
FILE "11 Live Duet No. 1.flac" WAVE
INDEX 01 00:00:00
TRACK 12 AUDIO
TITLE "Live Duet No. 2"
SONGWRITER "George Lewis/Miya Masaoka"
FLAGS DCP
REM REPLAYGAIN_TRACK_GAIN 8.35 dB
REM REPLAYGAIN_TRACK_PEAK 0.988190
INDEX 00 10:12:57
FILE "12 Live Duet No. 2.flac" WAVE
INDEX 01 00:00:00
19:57
319
Нет комментариев. Ваш будет первым!