Вы используете незарегистрированную версию компонента "Вкладки"!

Поиск

(Free Improvisation / Avant-Garde / Experimental) Such / Yoshikazu Iwamoto, John Tilbury, Eddie Prevost - The Issue at Hand - 1999, FLAC (tracks+.cue), lossless

Треклист:
Such - The Issue at Hand
Жанр: Free Improvisation / Avant-Garde / Experimental
Год выпуска диска: 1999
Производитель диска: Великобритания
Издатель: Matchless Recordings
Аудио кодек: FLAC
Тип рипа: tracks+.cue
Битрейт аудио: lossless
Продолжительность: 2:31:34
Трэклист:
CD1
1. Para' 1 10:14
2. Para' 2 9:52
3. Para' 3 9:55
4. Para' 4 11:20
5. Para' 5 7:32
6. Para' 6 12:09
7. Para' 7 14:57
8. Para' 8 2:11
CD2
1. Para' 9 18:20
2. Para' 10 16:47
3. Para' 11 4:24
4. Para' 12 23:53
5. Para' 13 10:00
Музыканты
Yoshikazu Iwamoto - shakuhachi
John Tilbury - piano
Eddie Prevost - percussion
 
Рецензия на альбом The Issue at Hand от allmusic.com (на английском)
The trio comprising Such is two thirds of AMM (Eddie Prevost and John Tilbury) plus shakuhachi player Yoshikazu Iwamoto. The Issue at Hand is a single, continuous improvisation lasting 151 minutes (track separation provided for convenience only) and it is extraordinarily beautiful. Imagine a sublime, spare AMM performance with a shakuhachi replacing Rowe's guitar and you get a fairly decent picture of what transpires here. Making choices in a calm and unhurried manner is much of what makes up this performance. Iwamoto's presence necessarily imparts a Japanese sense of space, and his companions accent that aspect wonderfully, not by shallowly adding this or that Japanese effect but by being true to their own visions, which have always shared something with the Zen aesthetic. The placement of sounds in silence has much akin to Japanese sumi painting or rock garden creation. Given no reason to indulge in the occasional loud, jazzy drumming explosions that punctuate his work with AMM, Prevost in particular generates an astonishing variety of percussive and stroked embellishments, always adding just the right counterweight to his fellow musicians. Tilbury, as is his forte, is all about the spare but luxuriant note, offered rarely but at the absolutely perfect moment; his solo section at the end of "Para' 7" might have had Gavin Bryars dropping his jaw in amazement and envy. Together, the three create one of the most gorgeous and, in many respects, unusual albums of free improvisation to be released in the '90s. Fans of AMM will love this recording, as will anyone interested in the use of the shakuhachi in an improvised setting.
Brian Olewnick
 
Рецензия на альбом The Issue at Hand от allmusic.com (перевод)
Трио составляющие Such - это две трети AMM (Eddie Prevost и John Tilbury) плюс исполнитель на сакухачи Yoshikazu Iwamoto. The Issue at Hand единая непрерывная импровизация, продолжающаяся 151 минуту (разделение на трэки дано лишь для удобства) и она невыразимо красива. Представьте великие и строгие выступления AMM с сакухачи вместо гитары Rowe и у Вас будет достаточно неплохая картина того, что происходит здесь. Принятие решений в спокойной неспешной манере - вот что составляет основную часть этой записи. Присутствие Iwamoto неизбежно привносит характерное для японцев чувство пространства, а его партнеры прекрасно подчеркивают этот аспект, не тем что безсмысленно добавляют тот или иной "японский" эффект, а тем, что остаются верны собственному видению, которое всегда имело много общего с эстетикой Дзен. Расстановка звуков в тишине имеет много общего с японским изобразительным искусством суми или созданием каменного сада. Не имея причин пускаться время от времени в громкие, джазовые барабанные взрывы, которые характерны для его работы в AMM, Prevost генерирует приводящее в изумление разнообразие перкусионных штрихов и оттенков, всегда добавляя правильный противовес к игре своих партнеров. Tilbury, чем и славится, весь погружен в умеренные но богатые ноты, поданные почи всегда в абсолютно идеальные моменты времени; его сольный отрезок в конце "Para' 7" вполне может заставить Gavin Bryars уронить челюсть от удивления и зависти. Вместе, все трое создают один из самых прекрасных и, во многих смыслах, необычных альбомов свободной импровизации, изданных в 90-х. Любители AMM полюбят эту запись так же, как и все интересующиеся записями сакухачи в импровизационной музыке.
Брайан Ольюник
 
EAC log (CD1)
Exact Audio Copy V0.99 prebeta 5 from 4. May 2009
EAC extraction logfile from 11. August 2009, 1:35
Such (Yoshikazu Iwamoto, Eddie Prevost, John Tilbury) / The Issue at Hand
Used drive : TSSTcorpDVD+-RW TS-T633A Adapter: 1 ID: 0
Read mode : Secure
Utilize accurate stream : Yes
Defeat audio cache : No
Make use of C2 pointers : Yes
Read offset correction : 6
Overread into Lead-In and Lead-Out : No
Fill up missing offset samples with silence : Yes
Delete leading and trailing silent blocks : No
Null samples used in CRC calculations : No
Used interface : Installed external ASPI interface
Gap handling : Appended to previous track
Used output format : User Defined Encoder
Selected bitrate : 768 kBit/s
Quality : High
Add ID3 tag : Yes
Command line compressor : C:\Program Files (x86)\Exact Audio Copy\FLAC\FLAC.EXE
Additional command line options : -6 -V -T "ARTIST=%a" -T "TITLE=%t" -T "ALBUM=%g" -T "DATE=%y" -T "TRACKNUMBER=%n" -T "GENRE=%m" -T "COMMENT=%e" %s -o %d
TOC of the extracted CD
Track | Start | Length | Start sector | End sector
---------------------------------------------------------
1 | 0:00.00 | 10:15.64 | 0 | 46188
2 | 10:15.64 | 9:54.71 | 46189 | 90809
3 | 20:10.60 | 9:56.15 | 90810 | 135524
4 | 30:07.00 | 11:23.10 | 135525 | 186759
5 | 41:30.10 | 7:33.30 | 186760 | 220764
6 | 49:03.40 | 12:09.21 | 220765 | 275460
7 | 61:12.61 | 14:57.43 | 275461 | 342778
8 | 76:10.29 | 2:14.46 | 342779 | 352874
Track 1
Filename C:\Users\Public\Slsk\+++ SLSK ARCHIVE\++ ORIGINAL RIPS (usually flac, usually EAC)\Such (Yoshikazu Iwamoto, Eddie Prevost, John Tilbury) - - The Issue at Hand\101 - Para' 1.wav
Pre-gap length 0:00:02.00
Peak level 57.4 %
Track quality 100.0 %
Copy CRC 58BC596A
Accurately ripped (confidence 1) [9B19CB2B]
Copy OK
Track 2
Filename C:\Users\Public\Slsk\+++ SLSK ARCHIVE\++ ORIGINAL RIPS (usually flac, usually EAC)\Such (Yoshikazu Iwamoto, Eddie Prevost, John Tilbury) - - The Issue at Hand\102 - Para' 2.wav
Peak level 35.6 %
Track quality 100.0 %
Copy CRC C96F517C
Accurately ripped (confidence 1) [37FB1916]
Copy OK
Track 3
Filename C:\Users\Public\Slsk\+++ SLSK ARCHIVE\++ ORIGINAL RIPS (usually flac, usually EAC)\Such (Yoshikazu Iwamoto, Eddie Prevost, John Tilbury) - - The Issue at Hand\103 - Para' 3.wav
Peak level 90.0 %
Track quality 100.0 %
Copy CRC 77662EC7
Accurately ripped (confidence 1) [3B9ABBB6]
Copy OK
Track 4
Filename C:\Users\Public\Slsk\+++ SLSK ARCHIVE\++ ORIGINAL RIPS (usually flac, usually EAC)\Such (Yoshikazu Iwamoto, Eddie Prevost, John Tilbury) - - The Issue at Hand\104 - Para' 4.wav
Peak level 100.0 %
Track quality 100.0 %
Copy CRC 2BA2464D
Accurately ripped (confidence 1) [C5DCD73A]
Copy OK
Track 5
Filename C:\Users\Public\Slsk\+++ SLSK ARCHIVE\++ ORIGINAL RIPS (usually flac, usually EAC)\Such (Yoshikazu Iwamoto, Eddie Prevost, John Tilbury) - - The Issue at Hand\105 - Para' 5.wav
Peak level 21.5 %
Track quality 100.0 %
Copy CRC 9FD5D773
Accurately ripped (confidence 1) [C2C32140]
Copy OK
Track 6
Filename C:\Users\Public\Slsk\+++ SLSK ARCHIVE\++ ORIGINAL RIPS (usually flac, usually EAC)\Such (Yoshikazu Iwamoto, Eddie Prevost, John Tilbury) - - The Issue at Hand\106 - Para' 6.wav
Peak level 99.9 %
Track quality 99.9 %
Copy CRC 37652455
Accurately ripped (confidence 1) [DE5422F9]
Copy OK
Track 7
Filename C:\Users\Public\Slsk\+++ SLSK ARCHIVE\++ ORIGINAL RIPS (usually flac, usually EAC)\Such (Yoshikazu Iwamoto, Eddie Prevost, John Tilbury) - - The Issue at Hand\107 - Para' 7.wav
Peak level 81.9 %
Track quality 100.0 %
Copy CRC 058F2E7B
Accurately ripped (confidence 1) [20BB1D77]
Copy OK
Track 8
Filename C:\Users\Public\Slsk\+++ SLSK ARCHIVE\++ ORIGINAL RIPS (usually flac, usually EAC)\Such (Yoshikazu Iwamoto, Eddie Prevost, John Tilbury) - - The Issue at Hand\108 - Para' 8.wav
Peak level 18.8 %
Track quality 100.0 %
Copy CRC 29DA155B
Accurately ripped (confidence 1) [7FD881E8]
Copy OK
All tracks accurately ripped
No errors occurred
End of status report
 
EAC log (CD2)
Exact Audio Copy V0.99 prebeta 5 from 4. May 2009
EAC extraction logfile from 11. August 2009, 2:03
Such (Yoshikazu Iwamoto, Eddie Prevost, John Tilbury) / The Issue at Hand
Used drive : TSSTcorpDVD+-RW TS-T633A Adapter: 1 ID: 0
Read mode : Secure
Utilize accurate stream : Yes
Defeat audio cache : No
Make use of C2 pointers : Yes
Read offset correction : 6
Overread into Lead-In and Lead-Out : No
Fill up missing offset samples with silence : Yes
Delete leading and trailing silent blocks : No
Null samples used in CRC calculations : No
Used interface : Installed external ASPI interface
Gap handling : Appended to previous track
Used output format : User Defined Encoder
Selected bitrate : 768 kBit/s
Quality : High
Add ID3 tag : Yes
Command line compressor : C:\Program Files (x86)\Exact Audio Copy\FLAC\FLAC.EXE
Additional command line options : -6 -V -T "ARTIST=%a" -T "TITLE=%t" -T "ALBUM=%g" -T "DATE=%y" -T "TRACKNUMBER=%n" -T "GENRE=%m" -T "COMMENT=%e" %s -o %d
TOC of the extracted CD
Track | Start | Length | Start sector | End sector
---------------------------------------------------------
1 | 0:00.00 | 18:22.37 | 0 | 82686
2 | 18:22.37 | 16:49.13 | 82687 | 158374
3 | 35:11.50 | 4:25.52 | 158375 | 178301
4 | 39:37.27 | 23:54.08 | 178302 | 285859
5 | 63:31.35 | 9:59.40 | 285860 | 330824
Track 1
Filename C:\Users\Public\Slsk\+++ SLSK ARCHIVE\++ ORIGINAL RIPS (usually flac, usually EAC)\Such (Yoshikazu Iwamoto, Eddie Prevost, John Tilbury) - - The Issue at Hand\Such (Yoshikazu Iwamoto, Eddie Prevost, John Tilbury) - - The Issue at Hand\201 -
Pre-gap length 0:00:02.00
Peak level 100.0 %
Track quality 99.9 %
Test CRC 5908E708
Copy CRC 5908E708
Accurately ripped (confidence 1) [9BAE8718]
Copy OK
Track 2
Filename C:\Users\Public\Slsk\+++ SLSK ARCHIVE\++ ORIGINAL RIPS (usually flac, usually EAC)\Such (Yoshikazu Iwamoto, Eddie Prevost, John Tilbury) - - The Issue at Hand\Such (Yoshikazu Iwamoto, Eddie Prevost, John Tilbury) - - The Issue at Hand\202 -
Peak level 48.4 %
Track quality 100.0 %
Test CRC D51FCA83
Copy CRC D51FCA83
Accurately ripped (confidence 1) [4110A8CD]
Copy OK
Track 3
Filename C:\Users\Public\Slsk\+++ SLSK ARCHIVE\++ ORIGINAL RIPS (usually flac, usually EAC)\Such (Yoshikazu Iwamoto, Eddie Prevost, John Tilbury) - - The Issue at Hand\Such (Yoshikazu Iwamoto, Eddie Prevost, John Tilbury) - - The Issue at Hand\203 -
Peak level 24.7 %
Track quality 100.0 %
Test CRC 4108B70B
Copy CRC 4108B70B
Accurately ripped (confidence 1) [B1E74C23]
Copy OK
Track 4
Filename C:\Users\Public\Slsk\+++ SLSK ARCHIVE\++ ORIGINAL RIPS (usually flac, usually EAC)\Such (Yoshikazu Iwamoto, Eddie Prevost, John Tilbury) - - The Issue at Hand\Such (Yoshikazu Iwamoto, Eddie Prevost, John Tilbury) - - The Issue at Hand\204 -
Peak level 36.1 %
Track quality 100.0 %
Test CRC 64DF55FB
Copy CRC 64DF55FB
Accurately ripped (confidence 1) [FF24E6B7]
Copy OK
Track 5
Filename C:\Users\Public\Slsk\+++ SLSK ARCHIVE\++ ORIGINAL RIPS (usually flac, usually EAC)\Such (Yoshikazu Iwamoto, Eddie Prevost, John Tilbury) - - The Issue at Hand\Such (Yoshikazu Iwamoto, Eddie Prevost, John Tilbury) - - The Issue at Hand\205 -
Peak level 21.9 %
Track quality 99.9 %
Test CRC 29100CA7
Copy CRC 29100CA7
Accurately ripped (confidence 1) [00B79493]
Copy OK
All tracks accurately ripped
No errors occurred
End of status report
 
CUE (CD1)
REM DISCID 73126108
REM COMMENT "ExactAudioCopy v0.99pb5"
PERFORMER "Such (Yoshikazu Iwamoto, Eddie Prevost, John Tilbury)"
TITLE "The Issue at Hand"
FILE "Such (Yoshikazu Iwamoto, Eddie Prevost, John Tilbury) - - The Issue at Hand\101 - Para' 1.wav" WAVE
TRACK 01 AUDIO
TITLE "Para' 1"
PERFORMER "Such (Yoshikazu Iwamoto, Eddie Prevost, John Tilbury)"
INDEX 01 00:00:00
FILE "Such (Yoshikazu Iwamoto, Eddie Prevost, John Tilbury) - - The Issue at Hand\102 - Para' 2.wav" WAVE
TRACK 02 AUDIO
TITLE "Para' 2"
PERFORMER "Such (Yoshikazu Iwamoto, Eddie Prevost, John Tilbury)"
INDEX 01 00:00:00
FILE "Such (Yoshikazu Iwamoto, Eddie Prevost, John Tilbury) - - The Issue at Hand\103 - Para' 3.wav" WAVE
TRACK 03 AUDIO
TITLE "Para' 3"
PERFORMER "Such (Yoshikazu Iwamoto, Eddie Prevost, John Tilbury)"
INDEX 01 00:00:00
FILE "Such (Yoshikazu Iwamoto, Eddie Prevost, John Tilbury) - - The Issue at Hand\104 - Para' 4.wav" WAVE
TRACK 04 AUDIO
TITLE "Para' 4"
PERFORMER "Such (Yoshikazu Iwamoto, Eddie Prevost, John Tilbury)"
INDEX 01 00:00:00
FILE "Such (Yoshikazu Iwamoto, Eddie Prevost, John Tilbury) - - The Issue at Hand\105 - Para' 5.wav" WAVE
TRACK 05 AUDIO
TITLE "Para' 5"
PERFORMER "Such (Yoshikazu Iwamoto, Eddie Prevost, John Tilbury)"
INDEX 01 00:00:00
FILE "Such (Yoshikazu Iwamoto, Eddie Prevost, John Tilbury) - - The Issue at Hand\106 - Para' 6.wav" WAVE
TRACK 06 AUDIO
TITLE "Para' 6"
PERFORMER "Such (Yoshikazu Iwamoto, Eddie Prevost, John Tilbury)"
INDEX 01 00:00:00
FILE "Such (Yoshikazu Iwamoto, Eddie Prevost, John Tilbury) - - The Issue at Hand\107 - Para' 7.wav" WAVE
TRACK 07 AUDIO
TITLE "Para' 7"
PERFORMER "Such (Yoshikazu Iwamoto, Eddie Prevost, John Tilbury)"
INDEX 01 00:00:00
FILE "Such (Yoshikazu Iwamoto, Eddie Prevost, John Tilbury) - - The Issue at Hand\108 - Para' 8.wav" WAVE
TRACK 08 AUDIO
TITLE "Para' 8"
PERFORMER "Such (Yoshikazu Iwamoto, Eddie Prevost, John Tilbury)"
INDEX 01 00:00:00
 
CUE (CD2)
REM DISCID 33113B05
REM COMMENT "ExactAudioCopy v0.99pb5"
PERFORMER "Such (Yoshikazu Iwamoto, Eddie Prevost, John Tilbury)"
TITLE "The Issue at Hand"
FILE "Such (Yoshikazu Iwamoto, Eddie Prevost, John Tilbury) - - The Issue at Hand\201 - Para' 9.wav" WAVE
TRACK 01 AUDIO
TITLE "Para' 9"
PERFORMER "Such (Yoshikazu Iwamoto, Eddie Prevost, John Tilbury)"
INDEX 01 00:00:00
FILE "Such (Yoshikazu Iwamoto, Eddie Prevost, John Tilbury) - - The Issue at Hand\202 - Para' 10.wav" WAVE
TRACK 02 AUDIO
TITLE "Para' 10"
PERFORMER "Such (Yoshikazu Iwamoto, Eddie Prevost, John Tilbury)"
INDEX 01 00:00:00
FILE "Such (Yoshikazu Iwamoto, Eddie Prevost, John Tilbury) - - The Issue at Hand\203 - Para' 11.wav" WAVE
TRACK 03 AUDIO
TITLE "Para' 11"
PERFORMER "Such (Yoshikazu Iwamoto, Eddie Prevost, John Tilbury)"
INDEX 01 00:00:00
FILE "Such (Yoshikazu Iwamoto, Eddie Prevost, John Tilbury) - - The Issue at Hand\204 - Para' 12.wav" WAVE
TRACK 04 AUDIO
TITLE "Para' 12"
PERFORMER "Such (Yoshikazu Iwamoto, Eddie Prevost, John Tilbury)"
INDEX 01 00:00:00
FILE "Such (Yoshikazu Iwamoto, Eddie Prevost, John Tilbury) - - The Issue at Hand\205 - Para' 13.wav" WAVE
TRACK 05 AUDIO
TITLE "Para' 13"
PERFORMER "Such (Yoshikazu Iwamoto, Eddie Prevost, John Tilbury)"
INDEX 01 00:00:00
 
другие lossless релизы с участием Eddie Prevost, John Tilbury от laocha на rutracker.org
 
другая интересная музыка в lossless
(Avant-Garde Jazz) Ben Monder Trio - Oceana - 2005, FLAC (image+.cue), lossless
(Avant-Garde Jazz) Ben Monder - Excavation - 2000, FLAC (image+.cue), lossless
(Avant-Garde Jazz) Ben Monder Trio - Flux - 1995, FLAC (image+.cue), lossless
(Avant-Garde Jazz) Cecil Taylor Unit - The Eighth - 1981, FLAC (tracks+.cue), lossless
(Avant-Garde Jazz) Cecil Taylor - Algonquin - 2004, APE (tracks), losless
(Avant-Garde Jazz) Henry Threadgill Sextett - Rag, Bush and All - 1989, FLAC (image+.cue), lossless
(Avant-Garde Jazz) Henry Threadgill Very Very Circus - Carry The Day - 1995, FLAC (tracks), lossless
(Avant-Garde Jazz / Free Jazz) Joe McPhee - Nation Time - 1971, FLAC (tracks), lossless
(Free Improvisation / Experimental) Keith Rowe & Toshimaru Nakamura - Weather Sky - 2001, FLAC (tracks), lossless
(Free Improvisation / Experimental) Keith Rowe & Toshimaru Nakamura - Erstlive 008 - 2009, FLAC (tracks+.cue), lossless
(Free Improvisation / Experimental / Abstract) Keith Rowe & Sachiko M - Contact - 2009, FLAC (tracks+.cue), lossless
(Free Improvisation / Experimental / Abstract) Keith Rowe - Harsh, Guitar Solo - 2000, FLAC (tracks+.cue), lossless
(Free Improvisation / Experimental) Noel Akchote, Roland Auzet, Luc Ferrari - Impro-Micro-Acoustique - 2003, FLAC (tracks+.cue), lossless
(Avant-Garde Jazz) Pandelis Karayorgis, Mat Maneri - Disambiguation - 2002, FLAC (tracks+.cue)
(Post-Bop / Free Jazz) Steve Lacy - Soprano Sax - 1958, FLAC (tracks+.cue), lossless
(Post-Bop, Free Jazz) Steve Lacy - Reflections: Steve Lacy Plays Thelonious Monk - 1959, FLAC (tracks+.cue), lossless
(Post-Bop / Avant-Garde Jazz) Steve Lacy - The Straight Horn Of Steve Lacy - 1961, FLAC (tracks+.cue), lossless
(Bop / Progressive Jazz) Steve Lacy with Don Cherry - Evidence - 1962, APE (image+.cue), lossless
(Free Jazz / Post Bop) Steve Lacy - Disposability - 1966, APE (image+.cue), lossless
(Avant-Garde Jazz / Post-Bop) Steve Lacy - The Door - 1989, FLAC (tracks+.cue), lossless
(Avant-Garde Jazz / Post-Bop) Steve Lacy & Mal Waldron - Hot House - 1991, FLAC (tracks+.cue), lossless
(Avant-Garde Jazz) Vinny Golia, Joelle Leandre & Ken Filiano - Haunting the Spirits Inside Them - 1995, APE (image+.cue), lossless
(Avant-Garde / Free Improvisation) Alexander Nesterov, Yuriy Yaremchuk / Александр Нестеров, Юрий Яремчук - Prepared Piano and Soprano Saxophone - 1994, FLAC (tracks+.cue), lossless
(Avant-Garde) Олександр Нестеров / Александр Нестеров / Oleksandr Nesterov - Опромінені звуки / Contaminated Sound - 2001, FLAC (tracks+.cue), lossless
(Free Improvisation / Avant-Garde) Alexander Nesterov / Александр Нестеров - Dynamic MIDItations 1 - 2002, FLAC (tracks+.cue), lossless
(Avant-Garde Jazz / Free Improvisation) Yuriy Yaremchuk, Sergej Zelenskiy / Юрий Яремчук, Сергей Зеленский - Figures - 2002, FLAC (tracks+.cue), lossless
(Avant-Garde Jazz / Free Improvisation) Yuriy Yaremchuk, Mark Tokar / Юрий Яремчук, Марк Токар - Eight Compositions - 2005, FLAC (tracks+.cue), lossless
(Avant-Garde Jazz / Free Improvisation) Yuriy Yaremchuk / Юрий Яремчук - Seven Compositions - 2006, FLAC (tracks+.cue), lossless
(Avant-Garde Jazz / Free Improvisation) Yuriy Yaremchuk / Юрий Яремчук - Six Compositions for Tenor Sax and Synthesizer Yamaha - 2008, FLAC (tracks+.cue), lossless
(Avant-Garde Jazz / Free Improvisation) Vladislav Makarov, Yuriy Yaremchuk, Andrij Orel / Владислав Макаров, Юрий Яремчук, Андрий Орел - Gogolfest Projekt - 2008, FLAC (tracks+.cue), lossless
(Folk/Ukrainian) Ніна Матвієнко - Золотослов / Нина Матвиенко - Золотослов - 1997, APE (image+.cue)
Any questions -> support@pro-jazz.com. По всем вопросам пишите -> support@pro-jazz.com
18:43
183
Нет комментариев. Ваш будет первым!