Вы используете незарегистрированную версию компонента "Вкладки"!

Поиск

(Free Improvisation, Avant-garde, Experimental, Alternative Rock, Noise ) Elliott Sharp, Fred Chalenor, Henry Franzoni - Boodlers - 1995, FLAC (tracks+.cue), lossless

Треклист:
Elliott Sharp, Fred Chalenor, Henry Franzoni / Boodlers
Жанр: Free Improvisation, Avant-garde, Experimental
Страна-производитель диска: US
Год издания диска: 1995
Издатель (лейбл): Cavity Search
Номер по каталогу: CSR 18
Аудиокодек: FLAC (*.flac)
Тип рипа: tracks+.cue
Битрейт аудио: lossless
Продолжительность: 49:03
Источник (релизер): whatcd/weareborg
Наличие сканов в содержимом раздачи: нет
Треклист:
1 Acid-Jazz Payback 8:13
2 Green Party 1:37
3 Buckshot 7:54
4 Cambionics 7:52
5 Boodlerama 20:20
6 Cache Cow 3:03
 
Лог создания рипа
Exact Audio Copy V0.99 prebeta 4 from 23. January 2008
EAC extraction logfile from 14. November 2008, 7:33
Elliott Sharp, Fred Chalenor, Henry Franzoni / Boodlers
Used drive : ASUS DRW-1814BL Adapter: 1 ID: 0
Read mode : Secure
Utilize accurate stream : Yes
Defeat audio cache : No
Make use of C2 pointers : No
Read offset correction : 6
Overread into Lead-In and Lead-Out : No
Fill up missing offset samples with silence : Yes
Delete leading and trailing silent blocks : No
Null samples used in CRC calculations : Yes
Used interface : Installed external ASPI interface
Gap handling : Appended to next track
Used output format : Internal WAV Routines
Sample format : 44.100 Hz; 16 Bit; Stereo
TOC of the extracted CD
Track | Start | Length | Start sector | End sector
---------------------------------------------------------
1 | 0:00.00 | 8:13.15 | 0 | 36989
2 | 8:13.15 | 1:38.57 | 36990 | 44396
3 | 9:51.72 | 7:54.20 | 44397 | 79966
4 | 17:46.17 | 7:52.30 | 79967 | 115396
5 | 25:38.47 | 20:20.53 | 115397 | 206949
6 | 45:59.25 | 3:03.67 | 206950 | 220741
Track 1
Filename E:\torr\boodlers\01. Elliott Sharp, Fred Chalenor, Henry Franzoni - Acid-Jazz Payback.wav
Pre-gap length 0:00:02.00
Peak level 94.8 %
Track quality 100.0 %
Copy CRC CEDB3C83
Track not present in AccurateRip database
Copy OK
Track 2
Filename E:\torr\boodlers\02. Elliott Sharp, Fred Chalenor, Henry Franzoni - Green Party.wav
Peak level 79.3 %
Track quality 100.0 %
Copy CRC D24D5476
Track not present in AccurateRip database
Copy OK
Track 3
Filename E:\torr\boodlers\03. Elliott Sharp, Fred Chalenor, Henry Franzoni - Buckshot.wav
Peak level 75.5 %
Track quality 100.0 %
Copy CRC 6A8D1D51
Track not present in AccurateRip database
Copy OK
Track 4
Filename E:\torr\boodlers\04. Elliott Sharp, Fred Chalenor, Henry Franzoni - Cambionics.wav
Peak level 81.6 %
Track quality 100.0 %
Copy CRC 9DA36CC0
Track not present in AccurateRip database
Copy OK
Track 5
Filename E:\torr\boodlers\05. Elliott Sharp, Fred Chalenor, Henry Franzoni - Boodlerama.wav
Peak level 100.0 %
Track quality 100.0 %
Copy CRC 461E50C7
Track not present in AccurateRip database
Copy OK
Track 6
Filename E:\torr\boodlers\06. Elliott Sharp, Fred Chalenor, Henry Franzoni - Cache Cow.wav
Peak level 98.4 %
Track quality 100.0 %
Copy CRC E5648FC7
Track not present in AccurateRip database
Copy OK
None of the tracks are present in the AccurateRip database
No errors occurred
End of status report
 
Содержание индексной карты (.CUE)
REM GENRE
REM DATE
REM DISCID 4E0B7F06
REM COMMENT "ExactAudioCopy v0.99pb4"
PERFORMER "Elliott Sharp, Fred Chalenor, Henry Franzoni"
TITLE "Boodlers"
FILE "01 Acid-Jazz Payback.flac" WAVE
TRACK 01 AUDIO
TITLE ""
PERFORMER "Elliott Sharp, Fred Chalenor, Henry Franzoni"
INDEX 01 00:00:00
FILE "02 Green Party.flac" WAVE
TRACK 02 AUDIO
TITLE ""
PERFORMER "Elliott Sharp, Fred Chalenor, Henry Franzoni"
INDEX 01 00:00:00
FILE "03 Buckshot.flac" WAVE
TRACK 03 AUDIO
TITLE ""
PERFORMER "Elliott Sharp, Fred Chalenor, Henry Franzoni"
INDEX 01 00:00:00
FILE "04 Cambionics.flac" WAVE
TRACK 04 AUDIO
TITLE ""
PERFORMER "Elliott Sharp, Fred Chalenor, Henry Franzoni"
INDEX 01 00:00:00
FILE "05 Boodlerama.flac" WAVE
TRACK 05 AUDIO
TITLE ""
PERFORMER "Elliott Sharp, Fred Chalenor, Henry Franzoni"
INDEX 01 00:00:00
FILE "06 Cache Cow.flac" WAVE
TRACK 06 AUDIO
TITLE ""
PERFORMER "Elliott Sharp, Fred Chalenor, Henry Franzoni"
INDEX 01 00:00:00
 
Состав
Bass – Fred Chalenor
Drums, Percussion – Henry Franzoni
Guitar, Saxophone [Tenor], Computer [Processing] – Elliott Sharp
Any questions -> support@pro-jazz.com. По всем вопросам пишите -> support@pro-jazz.com
15:36
180
Нет комментариев. Ваш будет первым!