Вы используете незарегистрированную версию компонента "Вкладки"!

Поиск

(Free Improvisation, Avant-Garde) Elliott Sharp & Reinhold Friedl - Feuchtify - 2006, FLAC (tracks+.cue) lossless

Треклист:
Elliott Sharp & Reinhold Friedl / Feuchtify
Жанр: Free Improvisation, Avant-Garde
Страна-производитель диска: UK
Год издания диска: 2006
Издатель (лейбл): Emanem
Номер по каталогу: 4133
Страна: US
Аудио кодек: FLAC (*.flac)
Тип рипа: tracks+.cue
Битрейт аудио: lossless
Продолжительность: 70:03
Источник (релизер): what.cd
Наличие сканов в содержимом раздачи: нет
Треклист:
1 Dict 6:51
2 Duc 2:33
3 Gress 2:17
4 Ject 3:53
5 Pel 9:01
6 Pend 4:54
7 Por 5:09
8 Scrib 8:16
9 Tract 3:13
10 Vert 3:14
11 Sub 4:46
12 Dis 3:29
13 Ify 11:27
 
Лог создания рипа
Отсутствует
 
Содержание индексной карты (.CUE)
REM GENRE General Classical
REM DATE 2006
REM DISCID C7106B0D
REM COMMENT ExactAudioCopy v0.95b4
PERFORMER "Elliott Sharp & Reinhold Friedl"
TITLE "Feuchtify"
FILE "01 - Dict.flac" WAVE
TRACK 01 AUDIO
TITLE "Dict"
INDEX 01 00:00:00
TRACK 02 AUDIO
TITLE "Duc"
INDEX 00 06:51:43
FILE "02 - Duc.flac" WAVE
INDEX 01 00:00:00
TRACK 03 AUDIO
TITLE "Gress"
INDEX 00 02:33:49
FILE "03 - Gress.flac" WAVE
INDEX 01 00:00:00
TRACK 04 AUDIO
TITLE "Ject"
INDEX 00 02:17:31
FILE "04 - Ject.flac" WAVE
INDEX 01 00:00:00
TRACK 05 AUDIO
TITLE "Pel"
INDEX 00 03:53:37
FILE "05 - Pel.flac" WAVE
INDEX 01 00:00:00
TRACK 06 AUDIO
TITLE "Pend"
INDEX 00 09:00:68
FILE "06 - Pend.flac" WAVE
INDEX 01 00:00:00
TRACK 07 AUDIO
TITLE "Por"
INDEX 00 04:53:65
FILE "07 - Por.flac" WAVE
INDEX 01 00:00:00
TRACK 08 AUDIO
TITLE "Scrib"
INDEX 00 05:08:66
FILE "08 - Scrib.flac" WAVE
INDEX 01 00:00:00
TRACK 09 AUDIO
TITLE "Tract"
INDEX 00 08:16:11
FILE "09 - Tract.flac" WAVE
INDEX 01 00:00:00
TRACK 10 AUDIO
TITLE "Vert"
INDEX 00 03:13:29
FILE "10 - Vert.flac" WAVE
INDEX 01 00:00:00
TRACK 11 AUDIO
TITLE "Sub"
INDEX 00 03:13:67
FILE "11 - Sub.flac" WAVE
INDEX 01 00:00:00
TRACK 12 AUDIO
TITLE "Dis"
INDEX 00 04:46:04
FILE "12 - Dis.flac" WAVE
INDEX 01 00:00:00
TRACK 13 AUDIO
TITLE "Ify"
INDEX 00 03:39:28
FILE "13 - Ify.flac" WAVE
INDEX 01 00:00:00
 
Лог проверки качества
d:\>d:\aucdtect -d/-m0 d:\zzz\*.wav
auCDtect: CD records authenticity detector, version 0.8.2
Copyright (c) 2004 Oleg Berngardt. All rights reserved.
Copyright (c) 2004 Alexander Djourik. All rights reserved.
------------------------------------------------------------
Processing file: [01. Dict.wav]
------------------------------------------------------------
This track looks like CDDA with probability 99%
------------------------------------------------------------
Processing file: [02. Duc.wav]
------------------------------------------------------------
This track looks like CDDA with probability 100%
------------------------------------------------------------
Processing file: [03. Gress.wav]
------------------------------------------------------------
This track looks like CDDA with probability 100%
------------------------------------------------------------
Processing file: [04. Ject.wav]
------------------------------------------------------------
This track looks like CDDA with probability 100%
------------------------------------------------------------
Processing file: [05. Pel.wav]
------------------------------------------------------------
This track looks like CDDA with probability 100%
------------------------------------------------------------
Processing file: [06. Pend.wav]
------------------------------------------------------------
This track looks like CDDA with probability 100%
------------------------------------------------------------
Processing file: [07. Por.wav]
------------------------------------------------------------
This track looks like CDDA with probability 100%
------------------------------------------------------------
Processing file: [08. Scrib.wav]
------------------------------------------------------------
This track looks like CDDA with probability 100%
------------------------------------------------------------
Processing file: [09. Tract.wav]
------------------------------------------------------------
This track looks like CDDA with probability 99%
------------------------------------------------------------
Processing file: [10. Vert.wav]
------------------------------------------------------------
This track looks like CDDA with probability 100%
------------------------------------------------------------
Processing file: [11. Sub.wav]
------------------------------------------------------------
This track looks like CDDA with probability 100%
------------------------------------------------------------
Processing file: [12. Dis.wav]
------------------------------------------------------------
This track looks like CDDA with probability 100%
------------------------------------------------------------
Processing file: [13. Ify.wav]
------------------------------------------------------------
This track looks like CDDA with probability 100%
------------------------------------------------------------
Final Conclusion:
------------------------------------------------------------
These tracks looks like CDDA with probability 100%
 
Скриншот спектра частот
Доп. информация:
 
Album Info
Label:
Emanem
Catalog#:
4133
Format:
CD, Album
Country:
UK
Mastered By, Design - Martin Davidson
Mixed By - Markus Weibel , Reinhold Friedl
Recorded By - Cy Fore
Recorded By [Assistant] - Blake Hargreaves
Recorded on 28 March 2001 at 107 Norfolk, New York City. Mixed in Berlin.
 
Состав
Piano [Inside, Prepared] - Reinhold Friedl
Soprano Saxophone, Electric Guitar, Guitar [Electric, Dobro, Fretless, 8-string Guitarbass], Computer - Elliott Sharp
Any questions -> support@pro-jazz.com. По всем вопросам пишите -> support@pro-jazz.com
06:57
137
Нет комментариев. Ваш будет первым!