Вы используете незарегистрированную версию компонента "Вкладки"!

Поиск

(Free Improvisation) Anthony Braxton - Solo (Milano) 1979 Vol.1 - 2003, FLAC (tracks+.cue), lossless

(Free Improvisation) Anthony Braxton - Solo (Milano) 1979 Vol.1 - 2003, FLAC (tracks+.cue), lossless
Треклист:
Anthony Braxton / Solo (Milano) 1979 Vol.1
Жанр: Free Improvisation
Страна-производитель диска: Великобритания
Год издания диска: 2003
Издатель (лейбл): Golden Years Of New Jazz
Номер по каталогу: CD GY 020
Страна: США
Аудиокодек: FLAC (*.flac)
Тип рипа: tracks+.cue
Битрейт аудио: lossless
Продолжительность: 54:04
Источник (релизер): вот.сиди (wyldwest)
Наличие сканов в содержимом раздачи: нет
Треклист:
1 Composition No. 77b 6:45
2 Composition No. 119a 6:27
3 Composition No. 8g 5:14
4 I Remember Clifford 5:38
5 Composition No. 99L 4:46
6 Composition No. 8h 5:16
7 Out Of Nowhere 5:21
8 Composition No. 8i 5:36
9 Composition No. 99m 4:44
10 Composition No. 106m 4:12
Recorded live on 17 January 1979 in Milano, Italy.
 
Лог создания рипа
Exact Audio Copy V1.0 beta 1 from 15. November 2010
EAC extraction logfile from 6. March 2011, 23:35
Anthony Braxton / Solo (Milano) 1979 Vol. 1
Used drive : MATSHITADVD-R UJ-867 Adapter: 0 ID: 0
Read mode : Secure
Utilize accurate stream : Yes
Defeat audio cache : Yes
Make use of C2 pointers : No
Read offset correction : 102
Overread into Lead-In and Lead-Out : No
Fill up missing offset samples with silence : Yes
Delete leading and trailing silent blocks : No
Null samples used in CRC calculations : Yes
Used interface : Native Win32 interface for Win NT & 2000
Gap handling : Appended to previous track
Used output format : User Defined Encoder
Selected bitrate : 320 kBit/s
Quality : High
Add ID3 tag : No
Command line compressor : C:\Program Files\Exact Audio Copy\Flac\flac.exe
Additional command line options : -V -8 -T "artist=%a" -T "title=%t" -T "album=%g" -T "date=%y" -T "tracknumber=%n" -T "genre=%m" %s
TOC of the extracted CD
Track | Start | Length | Start sector | End sector
---------------------------------------------------------
1 | 0:00.00 | 6:45.61 | 0 | 30435
2 | 6:45.61 | 6:27.32 | 30436 | 59492
3 | 13:13.18 | 5:14.67 | 59493 | 83109
4 | 18:28.10 | 5:38.74 | 83110 | 108533
5 | 24:07.09 | 4:46.16 | 108534 | 129999
6 | 28:53.25 | 5:16.22 | 130000 | 153721
7 | 34:09.47 | 5:21.02 | 153722 | 177798
8 | 39:30.49 | 5:36.29 | 177799 | 203027
9 | 45:07.03 | 4:43.73 | 203028 | 224325
10 | 49:51.01 | 4:12.55 | 224326 | 243280
Track 1
Filename C:\temp\Anthony Braxton - 2003 - Solo (Milano) 1979 Vol. 1\01 - Composition No. 77b.wav
Pre-gap length 0:00:02.00
Peak level 47.1 %
Extraction speed 1.5 X
Track quality 100.0 %
Test CRC 6F7A3F92
Copy CRC 6F7A3F92
Accurately ripped (confidence 1) [D5626D30]
Copy OK
Track 2
Filename C:\temp\Anthony Braxton - 2003 - Solo (Milano) 1979 Vol. 1\02 - Composition No. 119a.wav
Peak level 65.6 %
Extraction speed 1.7 X
Track quality 100.0 %
Test CRC 0EDFD381
Copy CRC 0EDFD381
Accurately ripped (confidence 1) [7D83A5B4]
Copy OK
Track 3
Filename C:\temp\Anthony Braxton - 2003 - Solo (Milano) 1979 Vol. 1\03 - Composition No. 8g.wav
Peak level 52.7 %
Extraction speed 1.7 X
Track quality 100.0 %
Test CRC 1A59C78C
Copy CRC 1A59C78C
Accurately ripped (confidence 1) [D9849C5F]
Copy OK
Track 4
Filename C:\temp\Anthony Braxton - 2003 - Solo (Milano) 1979 Vol. 1\04 - I Remember Clifford.wav
Peak level 42.9 %
Extraction speed 1.8 X
Track quality 100.0 %
Test CRC 7085DCAA
Copy CRC 7085DCAA
Accurately ripped (confidence 1) [21CF0558]
Copy OK
Track 5
Filename C:\temp\Anthony Braxton - 2003 - Solo (Milano) 1979 Vol. 1\05 - Composition No. 99L.wav
Peak level 35.9 %
Extraction speed 1.8 X
Track quality 100.0 %
Test CRC A276E1D7
Copy CRC A276E1D7
Accurately ripped (confidence 1) [8EB490F6]
Copy OK
Track 6
Filename C:\temp\Anthony Braxton - 2003 - Solo (Milano) 1979 Vol. 1\06 - Composition No. 8h.wav
Peak level 64.0 %
Extraction speed 1.9 X
Track quality 100.0 %
Test CRC 1EA115A2
Copy CRC 1EA115A2
Accurately ripped (confidence 1) [15FAAC39]
Copy OK
Track 7
Filename C:\temp\Anthony Braxton - 2003 - Solo (Milano) 1979 Vol. 1\07 - Out of Nowhere.wav
Peak level 39.9 %
Extraction speed 2.0 X
Track quality 100.0 %
Test CRC 1B4404EF
Copy CRC 1B4404EF
Accurately ripped (confidence 1) [D4B1036B]
Copy OK
Track 8
Filename C:\temp\Anthony Braxton - 2003 - Solo (Milano) 1979 Vol. 1\08 - Composition No. 8i.wav
Peak level 61.6 %
Extraction speed 1.8 X
Track quality 99.9 %
Test CRC C8B642CA
Copy CRC C8B642CA
Accurately ripped (confidence 1) [93240CB8]
Copy OK
Track 9
Filename C:\temp\Anthony Braxton - 2003 - Solo (Milano) 1979 Vol. 1\09 - Composition No. 99m.wav
Peak level 19.1 %
Extraction speed 2.0 X
Track quality 100.0 %
Test CRC 5AA3E769
Copy CRC 5AA3E769
Accurately ripped (confidence 1) [73DC75E1]
Copy OK
Track 10
Filename C:\temp\Anthony Braxton - 2003 - Solo (Milano) 1979 Vol. 1\10 - Composition No. 106m.wav
Peak level 40.4 %
Extraction speed 2.0 X
Track quality 100.0 %
Test CRC D747DDE9
Copy CRC D747DDE9
Accurately ripped (confidence 1) [547C0473]
Copy OK
All tracks accurately ripped
No errors occurred
End of status report
==== Log checksum C7F7BB0020471CDE4E799202489CE8D9AE372EA748A770527EAF5DBC7BD20B23 ====
 
Содержание индексной карты (.CUE)
REM GENRE Jazz
REM DATE 2003
REM DISCID 860CAB0A
REM COMMENT "ExactAudioCopy v1.0b1"
FILE "Anthony Braxton - 2003 - Solo (Milano) 1979 Vol. 1\01 - Composition No. 77b.flac" WAVE
TRACK 01 AUDIO
FLAGS DCP
INDEX 01 00:00:00
FILE "Anthony Braxton - 2003 - Solo (Milano) 1979 Vol. 1\02 - Composition No. 119a.flac" WAVE
TRACK 02 AUDIO
FLAGS DCP
INDEX 01 00:00:00
FILE "Anthony Braxton - 2003 - Solo (Milano) 1979 Vol. 1\03 - Composition No. 8g.flac" WAVE
TRACK 03 AUDIO
FLAGS DCP
INDEX 01 00:00:00
FILE "Anthony Braxton - 2003 - Solo (Milano) 1979 Vol. 1\04 - I Remember Clifford.flac" WAVE
TRACK 04 AUDIO
FLAGS DCP
INDEX 01 00:00:00
FILE "Anthony Braxton - 2003 - Solo (Milano) 1979 Vol. 1\05 - Composition No. 99L.flac" WAVE
TRACK 05 AUDIO
FLAGS DCP
INDEX 01 00:00:00
FILE "Anthony Braxton - 2003 - Solo (Milano) 1979 Vol. 1\06 - Composition No. 8h.flac" WAVE
TRACK 06 AUDIO
FLAGS DCP
INDEX 01 00:00:00
FILE "Anthony Braxton - 2003 - Solo (Milano) 1979 Vol. 1\07 - Out of Nowhere.flac" WAVE
TRACK 07 AUDIO
FLAGS DCP
INDEX 01 00:00:00
FILE "Anthony Braxton - 2003 - Solo (Milano) 1979 Vol. 1\08 - Composition No. 8i.flac" WAVE
TRACK 08 AUDIO
FLAGS DCP
INDEX 01 00:00:00
FILE "Anthony Braxton - 2003 - Solo (Milano) 1979 Vol. 1\09 - Composition No. 99m.flac" WAVE
TRACK 09 AUDIO
FLAGS DCP
INDEX 01 00:00:00
FILE "Anthony Braxton - 2003 - Solo (Milano) 1979 Vol. 1\10 - Composition No. 106m.flac" WAVE
TRACK 10 AUDIO
FLAGS DCP
INDEX 01 00:00:00
 
Лог проверки качества
AUDIOCHECKER v2.0 beta (build 457) - by Dester - opdester@freemail.hu
~~~~~~~~~~~~~~~~~~~~~~~~~~~~~~~~~~
-=== DO NOT EDIT THIS FILE! ===-
Path: ...\solo (milano) 1979 vol. 1
01 -=- 01 - Composition No. 77b.flac -=- CDDA (43%)
02 -=- 02 - Composition No. 119a.flac -=- CDDA (100%)
03 -=- 03 - Composition No. 8g.flac -=- CDDA (100%)
04 -=- 04 - I Remember Clifford.flac -=- CDDA (62%)
05 -=- 05 - Composition No. 99L.flac -=- MPEG (92%)
06 -=- 06 - Composition No. 8h.flac -=- CDDA (49%)
07 -=- 07 - Out of Nowhere.flac -=- CDDA (86%)
08 -=- 08 - Composition No. 8i.flac -=- CDDA (100%)
09 -=- 09 - Composition No. 99m.flac -=- MPEG (89%)
10 -=- 10 - Composition No. 106m.flac -=- CDDA (54%)
Summary 61,30% CDDA
141152996
 
Скриншот спектра частот
 
Состав
Anthony Braxton, reeds
Any questions -> support@pro-jazz.com. По всем вопросам пишите -> support@pro-jazz.com
13:01
206
Нет комментариев. Ваш будет первым!