Вы используете незарегистрированную версию компонента "Вкладки"!

Поиск

(Free Improvisation) Anthony Braxton / Gerry Hemingway - Old Dogs (2007) - 2010, FLAC (image+.cue), lossless

(Free Improvisation) Anthony Braxton / Gerry Hemingway - Old Dogs (2007) - 2010, FLAC (image+.cue), lossless
Треклист:
Anthony Braxton / Gerry Hemingway - Old Dogs (2007)

Жанр: Free Improvisation
Год выпуска диска: 2010
Производитель диска: Mode / Avant 9/12; USA
Аудио кодек: FLAC
Тип рипа: image+.cue
Битрейт аудио: lossless
Продолжительность: 1:01:55 + 59:32 + 1:00:59 + 1:01:44 = 4:04:07
Anthony Braxton: Eb sopranino, Bb soprano, Eb alto, C melody, Eb baritone, Bb bass and Bb contrabass saxophones
Gerry Hemingway: drums, marimba, vibraphone, steel drums, wood blocks, triggered and non-triggered samplers, harmonica, voice, percussion
Disc 1: Invention 8107AM
Disc 2: Invention 8107PM
Disc 3: Invention 8207AM
Disc 4: Invention 8207PM
 
EAC Report (Disc 1)
Exact Audio Copy V0.99 prebeta 4 from 23. January 2008
EAC extraction logfile from 17. July 2010, 17:16
Anthony Braxton / Gerry Hemingway / Old Dogs (Disc 1)
Used drive : TSSTcorpCD/DVDW SH-S182M Adapter: 2 ID: 0
Read mode : Secure
Utilize accurate stream : Yes
Defeat audio cache : Yes
Make use of C2 pointers : No
Read offset correction : 6
Overread into Lead-In and Lead-Out : No
Fill up missing offset samples with silence : Yes
Delete leading and trailing silent blocks : No
Null samples used in CRC calculations : Yes
Used interface : Installed external ASPI interface
Used output format : User Defined Encoder
Selected bitrate : 1024 kBit/s
Quality : High
Add ID3 tag : No
Command line compressor : C:\Program Files\Exact Audio Copy\Flac\flac.exe
Additional command line options : -6 -V -T "ARTIST=%a" -T "TITLE=%t" -T "ALBUM=%g" -T "DATE=%y" -T "TRACKNUMBER=%n" -T "GENRE=%m" -T "COMMENT=EAC FLAC -6" %s
TOC of the extracted CD
Track | Start | Length | Start sector | End sector
---------------------------------------------------------
1 | 0:00.00 | 61:54.54 | 0 | 278603
Range status and errors
Selected range
Filename C:\Users\Igor\Music\eac\Anthony Braxton & Gerry Hemingway - Old Dogs (Disc 1).wav
Peak level 97.1 %
Range quality 100.0 %
Test CRC CE33FB62
Copy CRC CE33FB62
Copy OK
No errors occurred
AccurateRip summary
Track 1 not present in database
None of the tracks are present in the AccurateRip database
End of status report
 
EAC Report (Disc 2)
Exact Audio Copy V0.99 prebeta 4 from 23. January 2008
EAC extraction logfile from 17. July 2010, 17:33
Anthony Braxton / Gerry Hemingway / Old Dogs (Disc 2)
Used drive : TSSTcorpCD/DVDW SH-S182M Adapter: 2 ID: 0
Read mode : Secure
Utilize accurate stream : Yes
Defeat audio cache : Yes
Make use of C2 pointers : No
Read offset correction : 6
Overread into Lead-In and Lead-Out : No
Fill up missing offset samples with silence : Yes
Delete leading and trailing silent blocks : No
Null samples used in CRC calculations : Yes
Used interface : Installed external ASPI interface
Used output format : User Defined Encoder
Selected bitrate : 1024 kBit/s
Quality : High
Add ID3 tag : No
Command line compressor : C:\Program Files\Exact Audio Copy\Flac\flac.exe
Additional command line options : -6 -V -T "ARTIST=%a" -T "TITLE=%t" -T "ALBUM=%g" -T "DATE=%y" -T "TRACKNUMBER=%n" -T "GENRE=%m" -T "COMMENT=EAC FLAC -6" %s
TOC of the extracted CD
Track | Start | Length | Start sector | End sector
---------------------------------------------------------
1 | 0:00.00 | 59:31.55 | 0 | 267879
Range status and errors
Selected range
Filename C:\Users\Igor\Music\eac\Anthony Braxton & Gerry Hemingway - Old Dogs (Disc 2).wav
Peak level 97.7 %
Range quality 100.0 %
Test CRC A8FC51D1
Copy CRC A8FC51D1
Copy OK
No errors occurred
AccurateRip summary
Track 1 not present in database
None of the tracks are present in the AccurateRip database
End of status report
 
EAC Report (Disc 3)
Exact Audio Copy V0.99 prebeta 4 from 23. January 2008
EAC extraction logfile from 17. July 2010, 17:51
Anthony Braxton / Gerry Hemingway / Old Dogs (Disc 3)
Used drive : TSSTcorpCD/DVDW SH-S182M Adapter: 2 ID: 0
Read mode : Secure
Utilize accurate stream : Yes
Defeat audio cache : Yes
Make use of C2 pointers : No
Read offset correction : 6
Overread into Lead-In and Lead-Out : No
Fill up missing offset samples with silence : Yes
Delete leading and trailing silent blocks : No
Null samples used in CRC calculations : Yes
Used interface : Installed external ASPI interface
Used output format : User Defined Encoder
Selected bitrate : 1024 kBit/s
Quality : High
Add ID3 tag : No
Command line compressor : C:\Program Files\Exact Audio Copy\Flac\flac.exe
Additional command line options : -6 -V -T "ARTIST=%a" -T "TITLE=%t" -T "ALBUM=%g" -T "DATE=%y" -T "TRACKNUMBER=%n" -T "GENRE=%m" -T "COMMENT=EAC FLAC -6" %s
TOC of the extracted CD
Track | Start | Length | Start sector | End sector
---------------------------------------------------------
1 | 0:00.00 | 60:58.70 | 0 | 274419
Range status and errors
Selected range
Filename C:\Users\Igor\Music\eac\Anthony Braxton & Gerry Hemingway - Old Dogs (Disc 3).wav
Peak level 98.5 %
Range quality 100.0 %
Test CRC 821A9472
Copy CRC 821A9472
Copy OK
No errors occurred
AccurateRip summary
Track 1 not present in database
None of the tracks are present in the AccurateRip database
End of status report
 
EAC Report (Disc 4)
Exact Audio Copy V0.99 prebeta 4 from 23. January 2008
EAC extraction logfile from 17. July 2010, 18:18
Anthony Braxton / Gerry Hemingway / Old Dogs (Disc 4)
Used drive : TSSTcorpCD/DVDW SH-S182M Adapter: 2 ID: 0
Read mode : Secure
Utilize accurate stream : Yes
Defeat audio cache : Yes
Make use of C2 pointers : No
Read offset correction : 6
Overread into Lead-In and Lead-Out : No
Fill up missing offset samples with silence : Yes
Delete leading and trailing silent blocks : No
Null samples used in CRC calculations : Yes
Used interface : Installed external ASPI interface
Used output format : User Defined Encoder
Selected bitrate : 1024 kBit/s
Quality : High
Add ID3 tag : No
Command line compressor : C:\Program Files\Exact Audio Copy\Flac\flac.exe
Additional command line options : -6 -V -T "ARTIST=%a" -T "TITLE=%t" -T "ALBUM=%g" -T "DATE=%y" -T "TRACKNUMBER=%n" -T "GENRE=%m" -T "COMMENT=EAC FLAC -6" %s
TOC of the extracted CD
Track | Start | Length | Start sector | End sector
---------------------------------------------------------
1 | 0:00.00 | 61:44.28 | 0 | 277827
Range status and errors
Selected range
Filename C:\Users\Igor\Music\eac\Anthony Braxton & Gerry Hemingway - Old Dogs (Disc 4).wav
Peak level 97.3 %
Range quality 100.0 %
Test CRC DDCC26DE
Copy CRC DDCC26DE
Copy OK
No errors occurred
AccurateRip summary
Track 1 not present in database
None of the tracks are present in the AccurateRip database
End of status report

рип собственный
Any questions -> support@pro-jazz.com. По всем вопросам пишите -> support@pro-jazz.com
01:29
157
Нет комментариев. Ваш будет первым!