Вы используете незарегистрированную версию компонента "Вкладки"!

Поиск

(Free Improvisation, Altri Suoni) Stefano Saccon featuring Enrico Rava - Underscore – Live at Bird’s Eye - 2002, FLAC (tracks+.cue), lossless

(Free Improvisation, Altri Suoni) Stefano Saccon featuring Enrico Rava - Underscore – Live at Bird’s Eye - 2002, FLAC (tracks+.cue), lossless
Треклист:
Stefano Saccon featuring Enrico Rava / Underscore – Live at Bird’s Eye
Жанр: Free Improvisation
Страна-производитель диска: Switzerland
Год издания: 2002
Издатель (лейбл): Altri Suoni
Номер по каталогу: AS 131
Аудиокодек: FLAC (*.flac)
Тип рипа: tracks+.cue
Битрейт аудио: lossless
Продолжительность: 57:11
Источник (релизер): Max Monteiro
Наличие сканов в содержимом раздачи: нет
Треклист:
1. Instinct 9:38
2. Le Pendule* 9:35
3. Underscore 10:31
4. Cecilia 7:42
5. Entre sixte* 7:52
6. En attendant Fredo 7:32
7. Deux* 4:22
All compositions by Stefano Saccon.
Recorded live at the Bird’s Eye in Basel, from June 18 to 22, 2002.
Stefano Saccon – Alto and Soprano Saxophones
Enrico Rava* – Trumpet, Bugle
Léo Tardin – Piano and Fender Rhodes
Ivor Malherbe – Bass
Norbert Pfammater – Drums
 
Лог создания рипа
Exact Audio Copy V1.0 beta 3 from 29. August 2011
EAC extraction logfile from 14. July 2013, 15:53
Stefano Saccon featuring Enrico Rava / Underscore - Live at Bird's Eye
Used drive : SlimtypeeNAU508 5 Adapter: 1 ID: 0
Read mode : Secure
Utilize accurate stream : Yes
Defeat audio cache : Yes
Make use of C2 pointers : No
Read offset correction : 6
Overread into Lead-In and Lead-Out : No
Fill up missing offset samples with silence : Yes
Delete leading and trailing silent blocks : No
Null samples used in CRC calculations : Yes
Used interface : Native Win32 interface for Win NT & 2000
Gap handling : Appended to previous track
Used output format : User Defined Encoder
Selected bitrate : 768 kBit/s
Quality : High
Add ID3 tag : No
Command line compressor : C:\Program Files (x86)\Exact Audio Copy\Flac\flac.exe
Additional command line options : -8 -V -T "ARTIST=%artist%" -T "TITLE=%title%" -T "ALBUM=%albumtitle%" -T "DATE=%year%" -T "TRACKNUMBER=%tracknr%" -T "GENRE=%genre%" -T "PERFORMER=%albuminterpret%" -T "COMPOSER=%composer%" %haslyrics%--tag-from-file=LYRICS="%lyricsfile%"%haslyrics% -T "ALBUMARTIST=%albumartist%" -T "DISCNUMBER=%cdnumber%" -T "TOTALDISCS=%totalcds%" -T "TOTALTRACKS=%numtracks%" -T "COMMENT=%comment%" %source% -o %dest%
TOC of the extracted CD
Track | Start | Length | Start sector | End sector
---------------------------------------------------------
1 | 0:00.30 | 9:38.23 | 30 | 43402
2 | 9:38.53 | 9:34.48 | 43403 | 86500
3 | 19:13.26 | 10:30.71 | 86501 | 133821
4 | 29:44.22 | 7:41.38 | 133822 | 168434
5 | 37:25.60 | 7:51.47 | 168435 | 203806
6 | 45:17.32 | 7:31.47 | 203807 | 237678
7 | 52:49.04 | 4:22.21 | 237679 | 257349
Track 1
Filename C:\EAC rips\01 - Instinct.wav
Pre-gap length 0:00:02.30
Peak level 100.0 %
Extraction speed 1.1 X
Track quality 99.9 %
Test CRC 70D0FED9
Copy CRC 70D0FED9
Track not present in AccurateRip database
Copy OK
Track 2
Filename C:\EAC rips\02 - Le Pendule.wav
Peak level 100.0 %
Extraction speed 1.5 X
Track quality 100.0 %
Test CRC 67B795CB
Copy CRC 67B795CB
Track not present in AccurateRip database
Copy OK
Track 3
Filename C:\EAC rips\03 - Underscore.wav
Peak level 100.0 %
Extraction speed 1.7 X
Track quality 100.0 %
Test CRC 760BA429
Copy CRC 760BA429
Track not present in AccurateRip database
Copy OK
Track 4
Filename C:\EAC rips\04 - Cecilia.wav
Peak level 100.0 %
Extraction speed 1.9 X
Track quality 100.0 %
Test CRC AFCD9228
Copy CRC AFCD9228
Track not present in AccurateRip database
Copy OK
Track 5
Filename C:\EAC rips\05 - Entre sixte.wav
Peak level 100.0 %
Extraction speed 2.0 X
Track quality 100.0 %
Test CRC 3689B04C
Copy CRC 3689B04C
Track not present in AccurateRip database
Copy OK
Track 6
Filename C:\EAC rips\06 - En attendant Fredo.wav
Peak level 100.0 %
Extraction speed 2.2 X
Track quality 100.0 %
Test CRC 80896950
Copy CRC 80896950
Track not present in AccurateRip database
Copy OK
Track 7
Filename C:\EAC rips\07 - Deux.wav
Peak level 100.0 %
Extraction speed 1.9 X
Track quality 99.9 %
Test CRC DE96A7D3
Copy CRC DE96A7D3
Track not present in AccurateRip database
Copy OK
None of the tracks are present in the AccurateRip database
No errors occurred
End of status report
---- CUETools DB Plugin V2.1.4
[CTDB TOCID: pza5_OSwpnQRtwKCwCmiKFJHEMo-] disk not present in database
Submit result: pza5_OSwpnQRtwKCwCmiKFJHEMo- has been uploaded
==== Log checksum DDD16D44F03FBB25C2041579ED09615F75906E509CE8542FA5FCA976CEEC0C3C ====
 
Содержание индексной карты (.CUE)
REM GENRE Jazz
REM DATE 2002
REM DISCID 5F0D6707
REM COMMENT "ExactAudioCopy v1.0b3"
PERFORMER "Stefano Saccon featuring Enrico Rava"
TITLE "Underscore - Live at Bird's Eye"
FILE "01 - Instinct.wav" WAVE
TRACK 01 AUDIO
TITLE "Instinct"
PERFORMER "Stefano Saccon featuring Enrico Rava"
PREGAP 00:00:30
INDEX 01 00:00:00
FILE "02 - Le Pendule.wav" WAVE
TRACK 02 AUDIO
TITLE "Le Pendule"
PERFORMER "Stefano Saccon featuring Enrico Rava"
INDEX 01 00:00:00
FILE "03 - Underscore.wav" WAVE
TRACK 03 AUDIO
TITLE "Underscore"
PERFORMER "Stefano Saccon featuring Enrico Rava"
INDEX 01 00:00:00
FILE "04 - Cecilia.wav" WAVE
TRACK 04 AUDIO
TITLE "Cecilia"
PERFORMER "Stefano Saccon featuring Enrico Rava"
INDEX 01 00:00:00
FILE "05 - Entre sixte.wav" WAVE
TRACK 05 AUDIO
TITLE "Entre sixte"
PERFORMER "Stefano Saccon featuring Enrico Rava"
INDEX 01 00:00:00
FILE "06 - En attendant Fredo.wav" WAVE
TRACK 06 AUDIO
TITLE "En attendant Fredo"
PERFORMER "Stefano Saccon featuring Enrico Rava"
INDEX 01 00:00:00
FILE "07 - Deux.wav" WAVE
TRACK 07 AUDIO
TITLE "Deux"
PERFORMER "Stefano Saccon featuring Enrico Rava"
INDEX 01 00:00:00
Any questions -> support@pro-jazz.com. По всем вопросам пишите -> support@pro-jazz.com
16:31
224
Нет комментариев. Ваш будет первым!