Вы используете незарегистрированную версию компонента "Вкладки"!

Поиск

(Free Improvisation) Alexander von Schlippenbach & Tony Oxley - Digger's Harvest - 1998, FLAC (tracks+.cue) lossless

(Free Improvisation) Alexander von Schlippenbach & Tony Oxley - Digger's Harvest - 1998, FLAC (tracks+.cue) lossless
Треклист:
Alexander von Schlippenbach & Tony Oxley / Digger's Harvest
Жанр: Free Improvisation
Страна-производитель диска: Германия
Год издания диска: 1998
Издатель (лейбл): FMP
Номер по каталогу: FMP CD 103
Страна: Германия, Великобритания
Аудио кодек: FLAC (*.flac)
Тип рипа: tracks+.cue
Битрейт аудио: lossless
Продолжительность: 1:18:29
Источник (релизер): другой трекер (Redsjazz)
Наличие сканов в содержимом раздачи: да
Треклист:
1 Grains and roots - 27:39
2 Deadly nightshade - 6:41
3 Thorn apple - 4:05
4 Toad stool - 3:24
5 Henbane - 5:54
6 Flyagaric - 4:18
7 Digger's harvest - 26:27
All music by Alexander von Schlippenbach and Tony Oxley
Recorded live on November 5th and 7th, 1998 during the Total Music Meeting at the Podewil in Berlin.
 
Лог создания рипа
EAC extraction logfile from 27. December 2008, 18:10 for CD
Alexander von Schlippenbach & Tony Oxly / Diggers Harvest
Used drive : HL-DT-STDVDRAM GSA-H10N Adapter: 0 ID: 0
Read mode : Secure with NO C2, accurate stream, disable cache
Read offset correction : 667
Overread into Lead-In and Lead-Out : No
Used output format : C:\Program Files\FLAC\flac.exe (User Defined Encoder)
128 kBit/s
Additional command line options : -8 -V -T "ARTIST=%a" -T "TITLE=%t" -T "ALBUM=%g" -T "DATE=%y" -T "TRACKNUMBER=%n" -T "GENRE=%m" -T "COMMENT=EAC FLAC -8" %s
Other options :
Fill up missing offset samples with silence : Yes
Delete leading and trailing silent blocks : No
Native Win32 interface for Win NT & 2000
Track 1
Filename D:\Torrents\Alexander von Schlippenbach & Tony Oxly - Diggers Harvest (1998) [FLAC]\01 - Grains and Roots.wav
Pre-gap length 0:00:02.00
Peak level 97.7 %
Track quality 100.0 %
Test CRC AEF1CED2
Copy CRC AEF1CED2
Copy OK
Track 2
Filename D:\Torrents\Alexander von Schlippenbach & Tony Oxly - Diggers Harvest (1998) [FLAC]\02 - Deadly Nightshade.wav
Peak level 90.4 %
Track quality 100.0 %
Test CRC 7ED89C17
Copy CRC 7ED89C17
Copy OK
Track 3
Filename D:\Torrents\Alexander von Schlippenbach & Tony Oxly - Diggers Harvest (1998) [FLAC]\03 - Thorn Apple.wav
Peak level 85.1 %
Track quality 100.0 %
Test CRC A72ED8E5
Copy CRC A72ED8E5
Copy OK
Track 4
Filename D:\Torrents\Alexander von Schlippenbach & Tony Oxly - Diggers Harvest (1998) [FLAC]\04 - Toad Stool.wav
Peak level 58.1 %
Track quality 100.0 %
Test CRC 78C60BB6
Copy CRC 78C60BB6
Copy OK
Track 5
Filename D:\Torrents\Alexander von Schlippenbach & Tony Oxly - Diggers Harvest (1998) [FLAC]\05 - Henbane.wav
Peak level 88.6 %
Track quality 100.0 %
Test CRC 26F4A9C2
Copy CRC 26F4A9C2
Copy OK
Track 6
Filename D:\Torrents\Alexander von Schlippenbach & Tony Oxly - Diggers Harvest (1998) [FLAC]\06 - Flyagaric.wav
Peak level 65.3 %
Track quality 100.0 %
Test CRC 5CC90A44
Copy CRC 5CC90A44
Copy OK
Track 7
Filename D:\Torrents\Alexander von Schlippenbach & Tony Oxly - Diggers Harvest (1998) [FLAC]\07 - Diggers Harvest.wav
Peak level 90.0 %
Track quality 100.0 %
Test CRC 2EDAFE8C
Copy CRC 2EDAFE8C
Copy OK
No errors occured
End of status report
 
Содержание индексной карты (.CUE)
REM GENRE jazz
REM DATE 1998
REM DISCID 4D126407
REM COMMENT "ExactAudioCopy v0.95b4"
PERFORMER "Alexander von Schlippenbach & Tony Oxly"
TITLE "Diggers Harvest"
FILE "01 - Grains and Roots.wav" WAVE
TRACK 01 AUDIO
TITLE "Grains and Roots"
PERFORMER "Alexander von Schlippenbach & Tony Oxly"
INDEX 01 00:00:00
FILE "02 - Deadly Nightshade.wav" WAVE
TRACK 02 AUDIO
TITLE "Deadly Nightshade"
PERFORMER "Alexander von Schlippenbach & Tony Oxly"
INDEX 01 00:00:00
FILE "03 - Thorn Apple.wav" WAVE
TRACK 03 AUDIO
TITLE "Thorn Apple"
PERFORMER "Alexander von Schlippenbach & Tony Oxly"
INDEX 01 00:00:00
FILE "04 - Toad Stool.wav" WAVE
TRACK 04 AUDIO
TITLE "Toad Stool"
PERFORMER "Alexander von Schlippenbach & Tony Oxly"
INDEX 01 00:00:00
FILE "05 - Henbane.wav" WAVE
TRACK 05 AUDIO
TITLE "Henbane"
PERFORMER "Alexander von Schlippenbach & Tony Oxly"
INDEX 01 00:00:00
FILE "06 - Flyagaric.wav" WAVE
TRACK 06 AUDIO
TITLE "Flyagaric"
PERFORMER "Alexander von Schlippenbach & Tony Oxly"
INDEX 01 00:00:00
FILE "07 - Diggers Harvest.wav" WAVE
TRACK 07 AUDIO
TITLE "Diggers Harvest"
PERFORMER "Alexander von Schlippenbach & Tony Oxly"
INDEX 01 00:00:00
 
Лог проверки качества
AUDIOCHECKER v2.0 beta (build 457) - by Dester - opdester@freemail.hu
~~~~~~~~~~~~~~~~~~~~~~~~~~~~~~~~~~
-=== DO NOT EDIT THIS FILE! ===-
Path: ...\diggers harvest 1998
1 -=- 01 - Grains and Roots.flac -=- CDDA (100%)
2 -=- 02 - Deadly Nightshade.flac -=- CDDA (100%)
3 -=- 03 - Thorn Apple.flac -=- CDDA (100%)
4 -=- 04 - Toad Stool.flac -=- CDDA (100%)
5 -=- 05 - Henbane.flac -=- CDDA (100%)
6 -=- 06 - Flyagaric.flac -=- CDDA (100%)
7 -=- 07 - Diggers Harvest.flac -=- CDDA (100%)
Summary 100,00% CDDA
65846420
 
Состав
Alexander von Schlippenbach - piano;
Tony Oxley - drums.
По всем вопросам пишите личное сообщение пользователю M0p94ok.
10:39
207
Нет комментариев. Ваш будет первым!