Вы используете незарегистрированную версию компонента "Вкладки"!

Поиск

(Free Improvisation) Albert van Veenendaal - Minimal Damage - 2010, FLAC (tracks+.cue), lossless

(Free Improvisation) Albert van Veenendaal - Minimal Damage - 2010, FLAC (tracks+.cue), lossless
Треклист:
Albert van Veenendaal / Minimal Damage
Жанр: Free Improvisation
Страна-производитель диска: Netherlands
Год издания диска: 2010
Издатель (лейбл): Evil Rabbit Records
Номер по каталогу: ERR 13
Аудиокодек: FLAC (*.flac)
Тип рипа: tracks+.cue
Битрейт аудио: lossless
Продолжительность: 41:18
Источник (релизер): what.cd (microtonne)
Наличие сканов в содержимом раздачи: нет
Треклист:
01 The Spy & The Vampire 5:28
02 Tear Dance 1:48
03 Frog Song 1:28
04 Mechanic Mushroom 2:45
05 Pirouetteke 1:50
06 Daily Values 1:39
07 Sea Monkeys 2:46
08 Minimal Damage 5:28
09 Old Frogs 0:59
10 Histoire Pneumatique 2:02
11 Whales 3:17
12 Goodbye Pork Pie Hat 2:10
13 Dark Days & The Moon 1:50
14 Transition 2:00
15 Zen Gardening 2:55
16 Slow Boat 2:52
 
Лог создания рипа
Exact Audio Copy V1.0 beta 3 from 29. August 2011
EAC extraction logfile from 28. November 2011, 21:10
Albert van Veenendaal / Minimal Damage
Used drive : _NEC DVD_RW ND-3520A Adapter: 1 ID: 1
Read mode : Secure
Utilize accurate stream : Yes
Defeat audio cache : Yes
Make use of C2 pointers : No
Read offset correction : 48
Overread into Lead-In and Lead-Out : No
Fill up missing offset samples with silence : Yes
Delete leading and trailing silent blocks : No
Null samples used in CRC calculations : Yes
Used interface : Native Win32 interface for Win NT & 2000
Gap handling : Appended to previous track
Used output format : User Defined Encoder
Selected bitrate : 768 kBit/s
Quality : High
Add ID3 tag : No
Command line compressor : C:\Program Files\Exact Audio Copy\FLAC\FLAC.EXE
Additional command line options : -6 -V -T "ARTIST=%artist%" -T "TITLE=%title%" -T "ALBUM=%albumtitle%" -T "DATE=%year%" -T "TRACKNUMBER=%tracknr%" -T "GENRE=%genre%" -T "COMMENT=%comment%" -T "BAND=%albuminterpret%" -T "ALBUMARTIST=%albuminterpret%" -T "COMPOSER=%composer%" %haslyrics%--tag-from-file=LYRICS="%lyricsfile%"%haslyrics% -T "DISCNUMBER=%cdnumber%" -T "TOTALDISCS=%totalcds%" -T "TOTALTRACKS=%numtracks%" %hascover%--picture="%coverfile%"%hascover% %source% -o %dest%
TOC of the extracted CD
Track | Start | Length | Start sector | End sector
---------------------------------------------------------
1 | 0:00.00 | 5:28.44 | 0 | 24643
2 | 5:28.44 | 1:47.64 | 24644 | 32732
3 | 7:16.33 | 1:28.24 | 32733 | 39356
4 | 8:44.57 | 2:45.04 | 39357 | 51735
5 | 11:29.61 | 1:50.03 | 51736 | 59988
6 | 13:19.64 | 1:38.17 | 59989 | 67355
7 | 14:58.06 | 2:46.44 | 67356 | 79849
8 | 17:44.50 | 5:27.34 | 79850 | 104408
9 | 23:12.09 | 0:59.09 | 104409 | 108842
10 | 24:11.18 | 2:01.71 | 108843 | 117988
11 | 26:13.14 | 3:17.54 | 117989 | 132817
12 | 29:30.68 | 2:09.55 | 132818 | 142547
13 | 31:40.48 | 1:49.50 | 142548 | 150772
14 | 33:30.23 | 1:59.54 | 150773 | 159751
15 | 35:30.02 | 2:55.19 | 159752 | 172895
16 | 38:25.21 | 2:52.40 | 172896 | 185835
Track 1
Filename C:\Documents and Settings\User\Рабочий стол\Albert Van Veenendaal - Minimal Damage_2010 [FLAC]\01 The Spy and the vampire.wav
Pre-gap length 0:00:02.00
Peak level 86.2 %
Extraction speed 3.7 X
Track quality 100.0 %
Test CRC 8F0C14BF
Copy CRC 8F0C14BF
Track not present in AccurateRip database
Copy OK
Track 2
Filename C:\Documents and Settings\User\Рабочий стол\Albert Van Veenendaal - Minimal Damage_2010 [FLAC]\02 Tear dance.wav
Pre-gap length 0:00:00.30
Peak level 68.0 %
Extraction speed 2.4 X
Track quality 99.9 %
Test CRC 05C8B552
Copy CRC 05C8B552
Track not present in AccurateRip database
Copy OK
Track 3
Filename C:\Documents and Settings\User\Рабочий стол\Albert Van Veenendaal - Minimal Damage_2010 [FLAC]\03 Frog song.wav
Pre-gap length 0:00:01.60
Peak level 41.9 %
Extraction speed 2.2 X
Track quality 99.8 %
Test CRC 94DD29ED
Copy CRC 94DD29ED
Track not present in AccurateRip database
Copy OK
Track 4
Filename C:\Documents and Settings\User\Рабочий стол\Albert Van Veenendaal - Minimal Damage_2010 [FLAC]\04 Mechanic mushroom.wav
Pre-gap length 0:00:01.04
Peak level 98.5 %
Extraction speed 4.0 X
Track quality 100.0 %
Test CRC 12FEC6B7
Copy CRC 12FEC6B7
Track not present in AccurateRip database
Copy OK
Track 5
Filename C:\Documents and Settings\User\Рабочий стол\Albert Van Veenendaal - Minimal Damage_2010 [FLAC]\05 Pirouetteke.wav
Pre-gap length 0:00:01.21
Peak level 72.0 %
Extraction speed 3.8 X
Track quality 100.0 %
Test CRC 1DF46F8F
Copy CRC 1DF46F8F
Track not present in AccurateRip database
Copy OK
Track 6
Filename C:\Documents and Settings\User\Рабочий стол\Albert Van Veenendaal - Minimal Damage_2010 [FLAC]\06 Daily values.wav
Pre-gap length 0:00:02.70
Peak level 96.9 %
Extraction speed 3.8 X
Track quality 100.0 %
Test CRC 8A9F3669
Copy CRC 8A9F3669
Track not present in AccurateRip database
Copy OK
Track 7
Filename C:\Documents and Settings\User\Рабочий стол\Albert Van Veenendaal - Minimal Damage_2010 [FLAC]\07 Sea monkeys.wav
Pre-gap length 0:00:02.68
Peak level 88.4 %
Extraction speed 4.4 X
Track quality 100.0 %
Test CRC 04FA2CF5
Copy CRC 04FA2CF5
Track not present in AccurateRip database
Copy OK
Track 8
Filename C:\Documents and Settings\User\Рабочий стол\Albert Van Veenendaal - Minimal Damage_2010 [FLAC]\08 Minimal damage.wav
Peak level 96.5 %
Extraction speed 5.1 X
Track quality 100.0 %
Test CRC C78B0DA9
Copy CRC C78B0DA9
Track not present in AccurateRip database
Copy OK
Track 9
Filename C:\Documents and Settings\User\Рабочий стол\Albert Van Veenendaal - Minimal Damage_2010 [FLAC]\09 Old frogs.wav
Pre-gap length 0:00:02.00
Peak level 28.0 %
Extraction speed 2.3 X
Track quality 99.8 %
Test CRC 344059BA
Copy CRC 344059BA
Track not present in AccurateRip database
Copy OK
Track 10
Filename C:\Documents and Settings\User\Рабочий стол\Albert Van Veenendaal - Minimal Damage_2010 [FLAC]\10 Histoire pneumatique.wav
Pre-gap length 0:00:03.02
Peak level 80.8 %
Extraction speed 4.6 X
Track quality 100.0 %
Test CRC 44F1EAF5
Copy CRC 44F1EAF5
Track not present in AccurateRip database
Copy OK
Track 11
Filename C:\Documents and Settings\User\Рабочий стол\Albert Van Veenendaal - Minimal Damage_2010 [FLAC]\11 Whales.wav
Pre-gap length 0:00:01.21
Peak level 81.9 %
Extraction speed 5.2 X
Track quality 100.0 %
Test CRC 6ADD1361
Copy CRC 6ADD1361
Track not present in AccurateRip database
Copy OK
Track 12
Filename C:\Documents and Settings\User\Рабочий стол\Albert Van Veenendaal - Minimal Damage_2010 [FLAC]\12 Goodbye pork pie hat.wav
Peak level 65.9 %
Extraction speed 4.8 X
Track quality 100.0 %
Test CRC 19A2EDEE
Copy CRC 19A2EDEE
Track not present in AccurateRip database
Copy OK
Track 13
Filename C:\Documents and Settings\User\Рабочий стол\Albert Van Veenendaal - Minimal Damage_2010 [FLAC]\13 Dark days & the moon.wav
Pre-gap length 0:00:00.56
Peak level 77.1 %
Extraction speed 4.9 X
Track quality 100.0 %
Test CRC 9F8908B5
Copy CRC 9F8908B5
Track not present in AccurateRip database
Copy OK
Track 14
Filename C:\Documents and Settings\User\Рабочий стол\Albert Van Veenendaal - Minimal Damage_2010 [FLAC]\14 Transistion.wav
Pre-gap length 0:00:00.47
Peak level 68.9 %
Extraction speed 5.1 X
Track quality 100.0 %
Test CRC 8750BF93
Copy CRC 8750BF93
Track not present in AccurateRip database
Copy OK
Track 15
Filename C:\Documents and Settings\User\Рабочий стол\Albert Van Veenendaal - Minimal Damage_2010 [FLAC]\15 Zen gardening.wav
Peak level 91.9 %
Extraction speed 4.3 X
Track quality 99.9 %
Test CRC BFEA3C6B
Copy CRC BFEA3C6B
Track not present in AccurateRip database
Copy OK
Track 16
Filename C:\Documents and Settings\User\Рабочий стол\Albert Van Veenendaal - Minimal Damage_2010 [FLAC]\16 Slow boat.wav
Pre-gap length 0:00:02.00
Peak level 74.3 %
Extraction speed 5.7 X
Track quality 100.0 %
Test CRC 735DFC07
Copy CRC 735DFC07
Track not present in AccurateRip database
Copy OK
None of the tracks are present in the AccurateRip database
No errors occurred
End of status report
==== Log checksum 821D77CA65F6B46762E733C446C98F00905D34F44C6424105899575D68BE9A54 ====
 
Содержание индексной карты (.CUE)
REM GENRE Jazz
REM DATE 2010
REM DISCID B909AD10
REM COMMENT "ExactAudioCopy v1.0b3"
PERFORMER "Albert van Veenendaal"
TITLE "Minimal Damage"
FILE "01 The Spy and the vampire.wav" WAVE
TRACK 01 AUDIO
TITLE "The Spy and the vampire"
PERFORMER "Albert van Veenendaal"
INDEX 01 00:00:00
TRACK 02 AUDIO
TITLE "Tear dance"
PERFORMER "Albert van Veenendaal"
INDEX 00 05:28:14
FILE "02 Tear dance.wav" WAVE
INDEX 01 00:00:00
TRACK 03 AUDIO
TITLE "Frog song"
PERFORMER "Albert van Veenendaal"
INDEX 00 01:46:04
FILE "03 Frog song.wav" WAVE
INDEX 01 00:00:00
TRACK 04 AUDIO
TITLE "Mechanic mushroom"
PERFORMER "Albert van Veenendaal"
INDEX 00 01:27:20
FILE "04 Mechanic mushroom.wav" WAVE
INDEX 01 00:00:00
TRACK 05 AUDIO
TITLE "Pirouetteke"
PERFORMER "Albert van Veenendaal"
INDEX 00 02:43:58
FILE "05 Pirouetteke.wav" WAVE
INDEX 01 00:00:00
TRACK 06 AUDIO
TITLE "Daily values"
PERFORMER "Albert van Veenendaal"
INDEX 00 01:47:08
FILE "06 Daily values.wav" WAVE
INDEX 01 00:00:00
TRACK 07 AUDIO
TITLE "Sea monkeys"
PERFORMER "Albert van Veenendaal"
INDEX 00 01:35:24
FILE "07 Sea monkeys.wav" WAVE
INDEX 01 00:00:00
FILE "08 Minimal damage.wav" WAVE
TRACK 08 AUDIO
TITLE "Minimal damage"
PERFORMER "Albert van Veenendaal"
INDEX 01 00:00:00
TRACK 09 AUDIO
TITLE "Old frogs"
PERFORMER "Albert van Veenendaal"
INDEX 00 05:25:34
FILE "09 Old frogs.wav" WAVE
INDEX 01 00:00:00
TRACK 10 AUDIO
TITLE "Histoire pneumatique"
PERFORMER "Albert van Veenendaal"
INDEX 00 00:56:07
FILE "10 Histoire pneumatique.wav" WAVE
INDEX 01 00:00:00
TRACK 11 AUDIO
TITLE "Whales"
PERFORMER "Albert van Veenendaal"
INDEX 00 02:00:50
FILE "11 Whales.wav" WAVE
INDEX 01 00:00:00
FILE "12 Goodbye pork pie hat.wav" WAVE
TRACK 12 AUDIO
TITLE "Goodbye pork pie hat"
PERFORMER "Albert van Veenendaal"
INDEX 01 00:00:00
TRACK 13 AUDIO
TITLE "Dark days & the moon"
PERFORMER "Albert van Veenendaal"
INDEX 00 02:08:74
FILE "13 Dark days & the moon.wav" WAVE
INDEX 01 00:00:00
TRACK 14 AUDIO
TITLE "Transistion"
PERFORMER "Albert van Veenendaal"
INDEX 00 01:49:03
FILE "14 Transistion.wav" WAVE
INDEX 01 00:00:00
FILE "15 Zen gardening.wav" WAVE
TRACK 15 AUDIO
TITLE "Zen gardening"
PERFORMER "Albert van Veenendaal"
INDEX 01 00:00:00
TRACK 16 AUDIO
TITLE "Slow boat"
PERFORMER "Albert van Veenendaal"
INDEX 00 02:53:19
FILE "16 Slow boat.wav" WAVE
INDEX 01 00:00:00
Доп. информация:
Recorded January - December 2009 in Amsterdam apart from 13 on 17 July 2007 at Leroy Studio, Amsterdam and 2, 12, 14 and 16 in June 2008 at het huis van Eustachuis, Hilversum
 
Состав
Piano [Prepared] – Albert Van Veenendaal
По всем вопросам пишите личное сообщение пользователю M0p94ok.
21:52
183
Нет комментариев. Ваш будет первым!