Вы используете незарегистрированную версию компонента "Вкладки"!

Поиск

(Free Improvisation / Al Maslakh) Christine Sehnaoui / Michel Waisvisz - Shortwave - 2008, FLAC (tracks), lossless

Треклист:
Christine Sehnaoui / Michel Waisvisz - Shortwave
Жанр: Free Improvisation
Год выпуска диска: 2008
Производитель диска: Al Maslakh (MSLKH 08)
Источник: вот.сиди (tamale)
Аудио кодек: FLAC
Тип рипа: tracks
Битрейт аудио: lossless
Продолжительность: 49:27
Трэклист:
1 Wig Wag 3:50
2 Preciously Empty 17:10
3 Deep Sleep Revelation 9:13
4 The Bottom Of The Pond 9:38
5 Finding The Short Wave In The Dark 9:17
Recorded October and November 2006 at the groupe recherche musicale (GRM) Paris
Christine Sehnaoui alto saxophone
Michel Waisvisz the hands
 
Лог создания рипа
Exact Audio Copy V1.0 beta 3 from 29. August 2011
EAC extraction logfile from 25. December 2011, 20:41
Christine Sehnaoui & Michael Waisvisz / Shortwave
Used drive : Optiarc DVD RW AD-7560S Adapter: 1 ID: 0
Read mode : Secure
Utilize accurate stream : Yes
Defeat audio cache : Yes
Make use of C2 pointers : No
Read offset correction : 6
Overread into Lead-In and Lead-Out : No
Fill up missing offset samples with silence : Yes
Delete leading and trailing silent blocks : No
Null samples used in CRC calculations : Yes
Used interface : Native Win32 interface for Win NT & 2000
Gap handling : Appended to previous track
Used output format : User Defined Encoder
Selected bitrate : 1024 kBit/s
Quality : High
Add ID3 tag : No
Command line compressor : C:\Program Files\Exact Audio Copy\FLAC\FLAC.EXE
Additional command line options : -8 -V -T "ARTIST=%artist%" -T "TITLE=%title%" -T "ALBUM=%albumtitle%" -T "DATE=%year%" -T "TRACKNUMBER=%tracknr%" -T "GENRE=%genre%" -T "PERFORMER=%albuminterpret%" -T "COMPOSER=%composer%" %haslyrics%--tag-from-file=LYRICS="%lyricsfile%"%haslyrics% -T "ALBUMARTIST=%albumartist%" -T "ALBUM ARTIST=%albumartist%" -T "DISCNUMBER=%cdnumber%" -T "TOTALDISCS=%totalcds%" -T "TOTALTRACKS=%numtracks%" -T "COMMENT=%comment%" %source% -o %dest%
TOC of the extracted CD
Track | Start | Length | Start sector | End sector
---------------------------------------------------------
1 | 0:00.00 | 3:54.60 | 0 | 17609
2 | 3:54.60 | 17:14.60 | 17610 | 95219
3 | 21:09.45 | 9:17.23 | 95220 | 137017
4 | 30:26.68 | 9:42.02 | 137018 | 180669
5 | 40:08.70 | 9:17.47 | 180670 | 222491
Track 1
Filename C:\Users\Paul\Desktop\new rips\Christine Sehnaoui & Michael Waisvisz - Shortwave\01 Wig Wag.wav
Pre-gap length 0:00:02.00
Peak level 100.0 %
Extraction speed 2.6 X
Track quality 100.0 %
Test CRC 167B7C88
Copy CRC 167B7C88
Accurately ripped (confidence 1) [1F77049F] (AR v1)
Copy OK
Track 2
Filename C:\Users\Paul\Desktop\new rips\Christine Sehnaoui & Michael Waisvisz - Shortwave\02 Preciously Empty.wav
Pre-gap length 0:00:04.00
Peak level 100.0 %
Extraction speed 3.7 X
Track quality 100.0 %
Test CRC 06070106
Copy CRC 06070106
Accurately ripped (confidence 1) [569BECE5] (AR v1)
Copy OK
Track 3
Filename C:\Users\Paul\Desktop\new rips\Christine Sehnaoui & Michael Waisvisz - Shortwave\03 Deep Sleep Revelation.wav
Pre-gap length 0:00:04.00
Peak level 100.0 %
Extraction speed 4.4 X
Track quality 100.0 %
Test CRC B171F8E9
Copy CRC B171F8E9
Accurately ripped (confidence 1) [798EC39C] (AR v1)
Copy OK
Track 4
Filename C:\Users\Paul\Desktop\new rips\Christine Sehnaoui & Michael Waisvisz - Shortwave\04 The Bottom of the Pond.wav
Pre-gap length 0:00:04.00
Peak level 100.0 %
Extraction speed 4.9 X
Track quality 100.0 %
Test CRC 4FC818DF
Copy CRC 4FC818DF
Accurately ripped (confidence 1) [26D025B5] (AR v1)
Copy OK
Track 5
Filename C:\Users\Paul\Desktop\new rips\Christine Sehnaoui & Michael Waisvisz - Shortwave\05 Finding the Short Wave in the Dark.wav
Pre-gap length 0:00:04.00
Peak level 99.4 %
Extraction speed 0.1 X
Track quality 98.8 %
Test CRC 2312A3B8
Copy CRC 2312A3B8
Accurately ripped (confidence 1) [E34542C4] (AR v1)
Copy OK
All tracks accurately ripped
No errors occurred
End of status report
---- CUETools DB Plugin V2.1.3
[CTDB TOCID: VGZIFuQDsTncJXIdQSyyx38cpvQ-] found, Submit result: already submitted
[075c5377] (1/1) Accurately ripped
==== Log checksum 80B3160DD84EC2585BA61B6768D20A42342382508453ABFF71E657324A2150B4 ====
 
Отчёт Audiocheckera
AUDIOCHECKER v2.0 beta (build 457) - by Dester - opdester@freemail.hu
~~~~~~~~~~~~~~~~~~~~~~~~~~~~~~~~~~
-=== DO NOT EDIT THIS FILE! ===-
Path: ...\Christine Sehnaoui & Michael Waisvisz - Shortwave
1 -=- 01 Wig Wag.flac -=- CDDA (100%)
2 -=- 02 Preciously Empty.flac -=- ERROR
3 -=- 03 Deep Sleep Revelation.flac -=- CDDA (100%)
4 -=- 04 The Bottom of the Pond.flac -=- CDDA (100%)
5 -=- 05 Finding the Short Wave in the Dark.flac -=- CDDA (100%)
Summary 100,00% CDDA
238713988
По всем вопросам пишите личное сообщение пользователю M0p94ok.
21:36
187
Нет комментариев. Ваш будет первым!