Вы используете незарегистрированную версию компонента "Вкладки"!

Поиск

(Free Improvisation, Abstract, Experimental, Erstwhile, Sound Art) Tetuzi Akiyama & Gunter Muller - Points And Slashes - 2005, FLAC (tracks), lossless

Треклист:
Tetuzi Akiyama & Gunter Muller / Points And Slashes
Жанр: Free Improvisation, Abstract, Experimental
Страна-производитель диска: US
Год издания диска: 2005
Издатель (лейбл): Erstwhile Records
Номер по каталогу: erstwhile 044
Аудиокодек: FLAC (*.flac)
Тип рипа: tracks
Битрейт аудио: lossless
Продолжительность: 41:33
Источник (релизер): whatcd/going_fragile
Наличие сканов в содержимом раздачи: нет
Треклист:
1. ///./// (5:56)
2. .//..//.. (16:00)
3. /./..././ (3:29)
4. ../../../.. (4:54)
5. //.///.// (5:22)
6. ././././. (5:50)
Tetuzi Akiyama: tape-delayed electric guitar
Gunter Muller: iPod, electronics
Recorded by Masae Ito at Tanker, Tokyo, April 29, 2004
Mixed and mastered by Gunter Muller, July 2004
Design by Friederike Paetzold
Released in June 2005
 
Лог создания рипа
Exact Audio Copy V0.99 prebeta 4 from 23. January 2008
EAC extraction logfile from 1. October 2008, 22:32
Tetuzi Akiyama & Gьnter Mьller / Points and Slashes
Used drive : TEAC DVD+-RW DVW28SLC Adapter: 0 ID: 1
Read mode : Secure
Utilize accurate stream : Yes
Defeat audio cache : Yes
Make use of C2 pointers : No
Read offset correction : 48
Overread into Lead-In and Lead-Out : No
Fill up missing offset samples with silence : Yes
Delete leading and trailing silent blocks : No
Null samples used in CRC calculations : No
Used interface : Native Win32 interface for Win NT & 2000
Gap handling : Not detected, thus appended to previous track
Used output format : User Defined Encoder
Selected bitrate : 224 kBit/s
Quality : High
Add ID3 tag : No
Command line compressor : C:\Program Files\Exact Audio Copy\Flac\flac.exe
Additional command line options : -V -8 -T "artist=%a" -T "title=%t" -T "album=%g" -T "date=%y" -T "tracknumber=%n" -T "genre=%m" %s
TOC of the extracted CD
Track | Start | Length | Start sector | End sector
---------------------------------------------------------
1 | 0:00.00 | 5:56.23 | 0 | 26722
2 | 5:56.23 | 16:00.59 | 26723 | 98781
3 | 21:57.07 | 3:29.00 | 98782 | 114456
4 | 25:26.07 | 4:54.00 | 114457 | 136506
5 | 30:20.07 | 5:22.50 | 136507 | 160706
6 | 35:42.57 | 5:50.00 | 160707 | 186956
Track 1
Filename C:\Users\Gibson\Music\EAC\Tetuzi Akiyama + Gьnter Mьller FLAC\Points and Slashes\01 - ,,,.,,, - Tetuzi Akiyama & Gьnter Mьller - Points and Slashes.wav
Peak level 100.0 %
Track quality 99.9 %
Copy CRC BD877FDB
Track not present in AccurateRip database
Copy OK
Track 2
Filename C:\Users\Gibson\Music\EAC\Tetuzi Akiyama + Gьnter Mьller FLAC\Points and Slashes\02 - .,,..,,.. - Tetuzi Akiyama & Gьnter Mьller - Points and Slashes.wav
Peak level 100.0 %
Track quality 100.0 %
Copy CRC 8ECB0C2F
Track not present in AccurateRip database
Copy OK
Track 3
Filename C:\Users\Gibson\Music\EAC\Tetuzi Akiyama + Gьnter Mьller FLAC\Points and Slashes\03 - ,.,...,., - Tetuzi Akiyama & Gьnter Mьller - Points and Slashes.wav
Peak level 100.0 %
Track quality 100.0 %
Copy CRC A185F06B
Track not present in AccurateRip database
Copy OK
Track 4
Filename C:\Users\Gibson\Music\EAC\Tetuzi Akiyama + Gьnter Mьller FLAC\Points and Slashes\04 - ..,..,..,.. - Tetuzi Akiyama & Gьnter Mьller - Points and Slashes.wav
Peak level 100.0 %
Track quality 100.0 %
Copy CRC C44BAFB9
Track not present in AccurateRip database
Copy OK
Track 5
Filename C:\Users\Gibson\Music\EAC\Tetuzi Akiyama + Gьnter Mьller FLAC\Points and Slashes\05 - ,,.,,,.,, - Tetuzi Akiyama & Gьnter Mьller - Points and Slashes.wav
Peak level 100.0 %
Track quality 100.0 %
Copy CRC 3216379E
Track not present in AccurateRip database
Copy OK
Track 6
Filename C:\Users\Gibson\Music\EAC\Tetuzi Akiyama + Gьnter Mьller FLAC\Points and Slashes\06 - .,.,.,.,. - Tetuzi Akiyama & Gьnter Mьller - Points and Slashes.wav
Peak level 100.0 %
Track quality 99.9 %
Copy CRC 5F0135E6
Track not present in AccurateRip database
Copy OK
None of the tracks are present in the AccurateRip database
No errors occurred
End of status report
Any questions -> support@pro-jazz.com. По всем вопросам пишите -> support@pro-jazz.com
13:34
154
Нет комментариев. Ваш будет первым!