Вы используете незарегистрированную версию компонента "Вкладки"!

Поиск

(Free Improvisation, Abstract, Drone, Minimal, Experimental, Musique Concrete) Thomas Ankersmit & Valerio Tricoli - Forma II - 2011, FLAC (tracks) lossless

Треклист:
Thomas Ankersmit & Valerio Tricoli / Forma II
Жанр: Free Improvisation, Abstract, Drone, Minimal, Experimental, Musique Concrète
Страна-производитель диска: Germany
Год издания диска: 2011
Издатель (лейбл): Pan
Номер по каталогу: PAN 16
Аудио кодек: FLAC (*.flac)
Тип рипа: tracks
Битрейт аудио: lossless
Продолжительность: 55:10
Источник (релизер): вот.сиди (NoEdit)
Наличие сканов в содержимом раздачи: нет
Треклист:
1 Zwerm Voor Tithonus 11:00
2 Brent Mini 6:06
3 Hunt 9:12
4 Plague #7 13:19
5 Takht-e Tâvus 15:33
Instruments: Serge Analogue Modular Synthesizer, Alto Saxophone, Guitar Pickups, Holosonic Speakers, Revox Tape Recorder, Walkman, Computer.
 
Лог создания рипа
X Lossless Decoder version 20110515 (133.1)
XLD extraction logfile from 2011-05-25 17:07:54 +0800
Valerio Tricoli, Thomas Ankersmit / Forma II
Used drive : HL-DT-ST DVDRW GA11N (revision JA18)
Ripper mode : CDParanoia III 10.2
Disable audio cache : OK for the drive with a cache less than 2750KiB
Make use of C2 pointers : NO
Read offset correction : 667
Max retry count : 100
Gap status : Analyzed, Appended
TOC of the extracted CD
Track | Start | Length | Start sector | End sector
---------------------------------------------------------
1 | 00:00:00 | 11:00:52 | 0 | 49551
2 | 11:00:52 | 06:06:13 | 49552 | 77014
3 | 17:06:65 | 09:11:51 | 77015 | 118390
4 | 26:18:41 | 13:18:54 | 118391 | 178294
5 | 39:37:20 | 15:33:08 | 178295 | 248277
AccurateRip Summary
Disc not found in AccurateRip DB.
All Tracks
Album gain : -4.87 dB
Peak : 1.000000
Statistics
Read error : 0
Skipped (treated as error) : 0
Edge jitter error (maybe fixed) : 0
Atom jitter error (maybe fixed) : 0
Drift error (maybe fixed) : 0
Dropped bytes error (maybe fixed) : 0
Duplicated bytes error (maybe fixed) : 0
Track 01
Filename : /Volumes/Sectors/Downloads/01 - Zwerm voor Tithonus.flac
Pre-gap length : 00:02:00
Track gain : -3.90 dB
Peak : 0.986633
CRC32 hash (test run) : E3B76B46
CRC32 hash : E3B76B46
CRC32 hash (skip zero) : 2AF14AFB
AccurateRip signature : 5ADCEE68
->Track not present in AccurateRip database.
Statistics
Read error : 0
Skipped (treated as error) : 0
Edge jitter error (maybe fixed) : 0
Atom jitter error (maybe fixed) : 0
Drift error (maybe fixed) : 0
Dropped bytes error (maybe fixed) : 0
Duplicated bytes error (maybe fixed) : 0
Inconsistency in error sectors : 0
Track 02
Filename : /Volumes/Sectors/Downloads/02 - Brent Mini.flac
Track gain : 1.97 dB
Peak : 0.970459
CRC32 hash (test run) : BF4FFC89
CRC32 hash : BF4FFC89
CRC32 hash (skip zero) : B37CC213
AccurateRip signature : 04F72F6F
->Track not present in AccurateRip database.
Statistics
Read error : 0
Skipped (treated as error) : 0
Edge jitter error (maybe fixed) : 0
Atom jitter error (maybe fixed) : 0
Drift error (maybe fixed) : 0
Dropped bytes error (maybe fixed) : 0
Duplicated bytes error (maybe fixed) : 0
Inconsistency in error sectors : 0
Track 03
Filename : /Volumes/Sectors/Downloads/03 - Hunt.flac
Track gain : -5.47 dB
Peak : 1.000000
CRC32 hash (test run) : 9C7F3DD4
CRC32 hash : 9C7F3DD4
CRC32 hash (skip zero) : 7ACC6BDB
AccurateRip signature : 3134CCC4
->Track not present in AccurateRip database.
Statistics
Read error : 0
Skipped (treated as error) : 0
Edge jitter error (maybe fixed) : 0
Atom jitter error (maybe fixed) : 0
Drift error (maybe fixed) : 0
Dropped bytes error (maybe fixed) : 0
Duplicated bytes error (maybe fixed) : 0
Inconsistency in error sectors : 0
Track 04
Filename : /Volumes/Sectors/Downloads/04 - Plague #7.flac
Track gain : -5.72 dB
Peak : 0.763885
CRC32 hash (test run) : 0FE811E2
CRC32 hash : 0FE811E2
CRC32 hash (skip zero) : EA01580C
AccurateRip signature : 52A9DD0D
->Track not present in AccurateRip database.
Statistics
Read error : 0
Skipped (treated as error) : 0
Edge jitter error (maybe fixed) : 0
Atom jitter error (maybe fixed) : 0
Drift error (maybe fixed) : 0
Dropped bytes error (maybe fixed) : 0
Duplicated bytes error (maybe fixed) : 0
Inconsistency in error sectors : 0
Track 05
Filename : /Volumes/Sectors/Downloads/05 - Takht-e Tâvus.flac
Track gain : -4.71 dB
Peak : 0.657959
CRC32 hash (test run) : 463CCF5E
CRC32 hash : 463CCF5E
CRC32 hash (skip zero) : 75331927
AccurateRip signature : 4E729A89
->Track not present in AccurateRip database.
Statistics
Read error : 0
Skipped (treated as error) : 0
Edge jitter error (maybe fixed) : 0
Atom jitter error (maybe fixed) : 0
Drift error (maybe fixed) : 0
Dropped bytes error (maybe fixed) : 0
Duplicated bytes error (maybe fixed) : 0
Inconsistency in error sectors : 0
No errors occurred
End of status report
Any questions -> support@pro-jazz.com. По всем вопросам пишите -> support@pro-jazz.com
12:56
172
Нет комментариев. Ваш будет первым!