Вы используете незарегистрированную версию компонента "Вкладки"!

Поиск

(Free Improvisation) Abdelhai Bennani Quartet (Alan Silva, Itaru Oki, Makoto Sato) - Enfance - 1999, FLAC (image+.cue), lossless

(Free Improvisation) Abdelhai Bennani Quartet (Alan Silva, Itaru Oki, Makoto Sato) - Enfance - 1999, FLAC (image+.cue), lossless
Треклист:
Abdelhai Bennani Quartet / Enfance
Жанр: Free Improvisation
Страна-производитель диска: France
Год издания диска: 1999
Издатель (лейбл): Marge
Номер по каталогу: 23
Аудиокодек: FLAC (*.flac)
Тип рипа: image+.cue
Битрейт аудио: lossless
Продолжительность: 56:40
Источник (релизер): cd
Наличие сканов в содержимом раздачи: нет
Треклист:
1 Le Geste Et La Parole 3:40
2 Asakusa 5:21
3 Enfance 8:21
4 Mystic 7:58
5 Du Vent Dans Les Ailes 8:10
6 Un Chameau Dans La Ville 3:17
7 Qu'As-Tu En Main ? 7:30
8 Fomoires 4:28
9 Pousse Ta Roue Devant 7:35
 
Лог создания рипа
Exact Audio Copy V1.0 beta 2 from 29. April 2011
EAC extraction logfile from 1. December 2011, 12:35
Abdelhai Bennani Quartet / Enfance
Used drive : Optiarc DVD RW AD-7170A Adapter: 0 ID: 0
Read mode : Secure
Utilize accurate stream : Yes
Defeat audio cache : Yes
Make use of C2 pointers : No
Read offset correction : 48
Overread into Lead-In and Lead-Out : No
Fill up missing offset samples with silence : Yes
Delete leading and trailing silent blocks : No
Null samples used in CRC calculations : Yes
Used interface : Native Win32 interface for Win NT & 2000
Used output format : User Defined Encoder
Selected bitrate : 320 kBit/s
Quality : High
Add ID3 tag : No
Command line compressor : C:\Program Files\Exact Audio Copy\Flac\flac.exe
Additional command line options : -V -8 -T "Date=%year%" -T "Genre=%genre%" %source%
TOC of the extracted CD
Track | Start | Length | Start sector | End sector
---------------------------------------------------------
1 | 0:00.00 | 3:42.42 | 0 | 16691
2 | 3:42.42 | 5:23.63 | 16692 | 40979
3 | 9:06.30 | 8:23.02 | 40980 | 78706
4 | 17:29.32 | 8:00.10 | 78707 | 114716
5 | 25:29.42 | 8:12.28 | 114717 | 151644
6 | 33:41.70 | 3:19.32 | 151645 | 166601
7 | 37:01.27 | 7:32.70 | 166602 | 200571
8 | 44:34.22 | 4:30.18 | 200572 | 220839
9 | 49:04.40 | 7:35.47 | 220840 | 255011
Range status and errors
Selected range
Filename C:\EAC\Downloads\Abdelhai Bennani Quartet - Enfance.wav
Peak level 100.0 %
Extraction speed 4.0 X
Range quality 99.9 %
Test CRC 7E810617
Copy CRC 7E810617
Copy OK
No errors occurred
AccurateRip summary
Track 1 not present in database
Track 2 not present in database
Track 3 not present in database
Track 4 not present in database
Track 5 not present in database
Track 6 not present in database
Track 7 not present in database
Track 8 not present in database
Track 9 not present in database
None of the tracks are present in the AccurateRip database
End of status report
==== Log checksum 8639BC024799984BCB800D402DC1990E8D0BEEE200B1233523D39181CD8AB9CD ====
 
Содержание индексной карты (.CUE)
REM GENRE Jazz
REM DATE 1999
REM DISCID 660D4809
REM COMMENT "ExactAudioCopy v1.0b2"
PERFORMER "Abdelhai Bennani Quartet"
TITLE "Enfance"
FILE "Abdelhai Bennani Quartet - Enfance.flac" WAVE
TRACK 01 AUDIO
TITLE "Le Geste Et La Parole"
PERFORMER "Abdelhai Bennani Quartet"
INDEX 01 00:00:00
TRACK 02 AUDIO
TITLE "Asakusa"
PERFORMER "Abdelhai Bennani Quartet"
INDEX 00 03:40:44
INDEX 01 03:42:42
TRACK 03 AUDIO
TITLE "Enfance"
PERFORMER "Abdelhai Bennani Quartet"
INDEX 00 09:04:32
INDEX 01 09:06:30
TRACK 04 AUDIO
TITLE "Mystic"
PERFORMER "Abdelhai Bennani Quartet"
INDEX 00 17:27:34
INDEX 01 17:29:32
TRACK 05 AUDIO
TITLE "Du Vent Dans Les Ailes"
PERFORMER "Abdelhai Bennani Quartet"
INDEX 00 25:27:44
INDEX 01 25:29:42
TRACK 06 AUDIO
TITLE "Un Chameau Dans La Ville"
PERFORMER "Abdelhai Bennani Quartet"
INDEX 00 33:39:69
INDEX 01 33:41:70
TRACK 07 AUDIO
TITLE "Qu'As-Tu En Main ?"
PERFORMER "Abdelhai Bennani Quartet"
INDEX 00 36:59:29
INDEX 01 37:01:27
TRACK 08 AUDIO
TITLE "Fomoires"
PERFORMER "Abdelhai Bennani Quartet"
INDEX 00 44:32:24
INDEX 01 44:34:22
TRACK 09 AUDIO
TITLE "Pousse Ta Roue Devant"
PERFORMER "Abdelhai Bennani Quartet"
INDEX 00 49:02:39
INDEX 01 49:04:40
Доп. информация: Enregistre les 11 et 12 octobre 1998 a "La Cave", Paris.
 
Состав
Double Bass – Alan Silva
Drums – Makoto Sato
Tenor Saxophone – Abdelhai Bennani
Trumpet, Bugle, Bansuri, Flute [Yokobue] – Itaru Oki
Any questions -> support@pro-jazz.com. По всем вопросам пишите -> support@pro-jazz.com
19:01
273
Нет комментариев. Ваш будет первым!