Вы используете незарегистрированную версию компонента "Вкладки"!

Поиск

(Free Improvisation) Aaron Bennet, Jerome Bryerton, John Butcher, Danielle DeGruttola, Henry Kaiser, Damon Smith - Sextessence - A Tribute to John Stevens and the SME - 2008, FLAC (tracks) lossless

Треклист:
Aaron Bennet, Jerome Bryerton, John Butcher, Danielle DeGruttola, Henry Kaiser, Damon Smith / Sextessence - A Tribute to John Stevens and the SME
Жанр: Free Improvisation
Страна-производитель диска: США
Год издания диска: 2008
Издатель (лейбл): Balance Point Acoustics
Номер по каталогу: BPA - 011
Страна: США, Великобритания
Аудио кодек: FLAC (*.flac)
Тип рипа: tracks
Битрейт аудио: lossless
Продолжительность: 1:19:55
Источник (релизер): soulseek (marcin_k123)
Наличие сканов в содержимом раздачи: да
Треклист:
1 So what do you think of John Stevens? 12:00
2 Deep six for the SME 7:59
3 Beckett(Sam) 7:41
4 Immediate Pasts 10:41
5 Click piece + Sustain = 7:33
6 Has duration 10:23
7 Implies its opposite 5:40
8 Six & One 6:46
9 Septessence 11:10
 
Лог создания рипа
dBpoweramp Release 13.2 Digital Audio Extraction Log from 3 lipca 2010 10:40
Drive & Settings
----------------
Ripping with drive 'E: [TSSTcorp - CDDVDW SH-S223C ]', Drive offset: 697, Overread Lead-in/out: No
AccurateRip: Active, Using C2: Yes, Cache: 1024 KB, FUA Cache Invalidate: No
Pass 1 Drive Speed: Max, Pass 2 Drive Speed: 8
Ultra:: Vary Drive Speed: No, Min Passes: 3, Max Passes: 6, Finish After Clean Passes: 2
Bad Sector Re-rip:: Drive Speed: Max, Maximum Re-reads: 34
Encoder: FLAC -compression-level-5 -verify
Extraction Log
--------------
Track 1: Ripped LBA 0 to 54025 (12:00) in 2:32. Filename: C:\Users\Marcin\Music\Bennet, Bryerton, Butcher, De Gruttola, Kaiser, Smith\Sextessense - A Tribute To John Stevens And The SME\Bennet, Bryerton, Butcher, De Gruttola, Kaiser, Smith - 01 - So What Do You Think About John Stevens?.flac
AccurateRip: Inaccurate (confidence 1) Secure [Pass 1, Ultra 1 to 3]
CRC32: A2822D18 AccurateRip CRC: 3ADCD6C8 [DiscID: 009-001c39a4-00cbfefa-6f12ba09-1]
Track 2: Ripped LBA 54025 to 90000 (7:59) in 1:18. Filename: C:\Users\Marcin\Music\Bennet, Bryerton, Butcher, De Gruttola, Kaiser, Smith\Sextessense - A Tribute To John Stevens And The SME\Bennet, Bryerton, Butcher, De Gruttola, Kaiser, Smith - 02 - Deep Six For The SME.flac
AccurateRip: Inaccurate (confidence 1) Secure [Pass 1, Ultra 1 to 3]
CRC32: B41BA019 AccurateRip CRC: A1EADC30 [DiscID: 009-001c39a4-00cbfefa-6f12ba09-2]
Track 3: Ripped LBA 90000 to 124635 (7:41) in 1:08. Filename: C:\Users\Marcin\Music\Bennet, Bryerton, Butcher, De Gruttola, Kaiser, Smith\Sextessense - A Tribute To John Stevens And The SME\Bennet, Bryerton, Butcher, De Gruttola, Kaiser, Smith - 03 - Beckett (Sam).flac
AccurateRip: Inaccurate (confidence 1) Secure [Pass 1, Ultra 1 to 3]
CRC32: 83D65721 AccurateRip CRC: 4C99EB5F [DiscID: 009-001c39a4-00cbfefa-6f12ba09-3]
Track 4: Ripped LBA 124635 to 172722 (10:41) in 1:25. Filename: C:\Users\Marcin\Music\Bennet, Bryerton, Butcher, De Gruttola, Kaiser, Smith\Sextessense - A Tribute To John Stevens And The SME\Bennet, Bryerton, Butcher, De Gruttola, Kaiser, Smith - 04 - Immeadiate Pasts.flac
AccurateRip: Inaccurate (confidence 1) Secure [Pass 1, Ultra 1 to 3]
CRC32: F14C6BB1 AccurateRip CRC: AB1892CE [DiscID: 009-001c39a4-00cbfefa-6f12ba09-4]
Track 5: Ripped LBA 172722 to 206705 (7:33) in 0:55. Filename: C:\Users\Marcin\Music\Bennet, Bryerton, Butcher, De Gruttola, Kaiser, Smith\Sextessense - A Tribute To John Stevens And The SME\Bennet, Bryerton, Butcher, De Gruttola, Kaiser, Smith - 05 - Click Piece + Sustain =.flac
AccurateRip: Inaccurate (confidence 1) Secure [Pass 1, Ultra 1 to 3]
CRC32: 15798511 AccurateRip CRC: 7C2F0526 [DiscID: 009-001c39a4-00cbfefa-6f12ba09-5]
Track 6: Ripped LBA 206705 to 253500 (10:23) in 1:11. Filename: C:\Users\Marcin\Music\Bennet, Bryerton, Butcher, De Gruttola, Kaiser, Smith\Sextessense - A Tribute To John Stevens And The SME\Bennet, Bryerton, Butcher, De Gruttola, Kaiser, Smith - 06 - Has Duration.flac
AccurateRip: Inaccurate (confidence 1) Secure [Pass 1, Ultra 1 to 3]
CRC32: 46556EE8 AccurateRip CRC: 365271CF [DiscID: 009-001c39a4-00cbfefa-6f12ba09-6]
Track 7: Ripped LBA 253500 to 279037 (5:40) in 0:37. Filename: C:\Users\Marcin\Music\Bennet, Bryerton, Butcher, De Gruttola, Kaiser, Smith\Sextessense - A Tribute To John Stevens And The SME\Bennet, Bryerton, Butcher, De Gruttola, Kaiser, Smith - 07 - Implies Its Opposite.flac
AccurateRip: Inaccurate (confidence 1) Secure [Pass 1, Ultra 1 to 3]
CRC32: D8553A1D AccurateRip CRC: D4424841 [DiscID: 009-001c39a4-00cbfefa-6f12ba09-7]
Track 8: Ripped LBA 279037 to 309545 (6:46) in 0:42. Filename: C:\Users\Marcin\Music\Bennet, Bryerton, Butcher, De Gruttola, Kaiser, Smith\Sextessense - A Tribute To John Stevens And The SME\Bennet, Bryerton, Butcher, De Gruttola, Kaiser, Smith - 08 - Six & One.flac
AccurateRip: Inaccurate (confidence 1) Secure [Pass 1, Ultra 1 to 3]
CRC32: A0EA3EAA AccurateRip CRC: 0E8D27CF [DiscID: 009-001c39a4-00cbfefa-6f12ba09-8]
Track 9: Ripped LBA 309545 to 359595 (11:07) in 1:06. Filename: C:\Users\Marcin\Music\Bennet, Bryerton, Butcher, De Gruttola, Kaiser, Smith\Sextessense - A Tribute To John Stevens And The SME\Bennet, Bryerton, Butcher, De Gruttola, Kaiser, Smith - 09 - Septessence.flac
AccurateRip: Inaccurate (confidence 1) Secure [Pass 1, Ultra 1 to 3]
CRC32: CDACAA71 AccurateRip CRC: 13FCE018 [DiscID: 009-001c39a4-00cbfefa-6f12ba09-9]
--------------
9 Tracks Ripped Securely (AccurateRip: Different Pressing?)
 
Лог проверки качества
AUDIOCHECKER v2.0 beta (build 457) - by Dester - opdester@freemail.hu
~~~~~~~~~~~~~~~~~~~~~~~~~~~~~~~~~~
-=== DO NOT EDIT THIS FILE! ===-
Path: ...\sextessense - a tribute to john stevens and the sme
1 -=- Bennet, Bryerton, Butcher, De Gruttola, Kaiser, Smith - 01 - So What Do You Think About John Stevens.flac -=- CDDA (100%)
2 -=- Bennet, Bryerton, Butcher, De Gruttola, Kaiser, Smith - 02 - Deep Six For The SME.flac -=- CDDA (100%)
3 -=- Bennet, Bryerton, Butcher, De Gruttola, Kaiser, Smith - 03 - Beckett (Sam).flac -=- CDDA (100%)
4 -=- Bennet, Bryerton, Butcher, De Gruttola, Kaiser, Smith - 04 - Immeadiate Pasts.flac -=- CDDA (100%)
5 -=- Bennet, Bryerton, Butcher, De Gruttola, Kaiser, Smith - 05 - Click Piece + Sustain =.flac -=- CDDA (100%)
6 -=- Bennet, Bryerton, Butcher, De Gruttola, Kaiser, Smith - 06 - Has Duration.flac -=- CDDA (100%)
7 -=- Bennet, Bryerton, Butcher, De Gruttola, Kaiser, Smith - 07 - Implies Its Opposite.flac -=- CDDA (100%)
8 -=- Bennet, Bryerton, Butcher, De Gruttola, Kaiser, Smith - 08 - Six & One.flac -=- CDDA (100%)
9 -=- Bennet, Bryerton, Butcher, De Gruttola, Kaiser, Smith - 09 - Septessence.flac -=- CDDA (100%)
Summary 100,00% CDDA
159027764
 
Состав
AARON BENNET: soprano saxophone
JEROME BRYERTON: drums
JOHN BUTCHER: tenor or soprano saxophone
DANIELLE DeGRUTTOLA: cello
HENRY KAISER: guitar
DAMON SMITH: double bass
+ KURT NEWMAN: guitar on track 9
По всем вопросам пишите личное сообщение пользователю M0p94ok.
03:26
161
Нет комментариев. Ваш будет первым!