Поиск

(Free Funk, Groove) [CD] Laurent Coulondre Trio - Schizophrenia - 2016, FLAC (tracks+.cue), lossless

(Free Funk, Groove) [CD] Laurent Coulondre Trio - Schizophrenia - 2016, FLAC (tracks+.cue), lossless
Laurent Coulondre Trio - Schizophrenia Жанр: Free Funk, Groove
Носитель: CD
Год издания: 2016
Издатель (лейбл): Sound Surveyor Music
Номер по каталогу: SOSU1509
Аудиокодек: FLAC (*.flac)
Тип рипа: tracks+.cue
Битрейт аудио: lossless
Продолжительность: 44:48
Rip by dtromp
Наличие сканов в содержимом раздачи: да
Треклист:
01. Prelude to Schizophrenia (1:40)
02. Schizophrenia (5:38)
03. Palma's Waltz (7:16)
04. Sunny Road Trip (5:09)
05. Spring Bloom (1:52)
06. Parallel Spaces (7:07)
07. Bouncing Peanuts (5:17)
08. Fun Keys (10:50)
Personnel:
Laurent Coulondre - piano, organ
Rémi Bouyssière - bass, double bass
Martin Wangermée - drums
Recorded at Moods Studios, Vannes, December 2014.
 
 
Лог создания рипа
Exact Audio Copy V1.3 from 2. September 2016
EAC extraction logfile from 21. October 2016, 20:13
Laurent Coulondre Trio / Schizophrenia
Used drive : ATAPI iHBS112 2 Adapter: 1 ID: 1
Read mode : Secure
Utilize accurate stream : Yes
Defeat audio cache : Yes
Make use of C2 pointers : No
Read offset correction : 6
Overread into Lead-In and Lead-Out : No
Fill up missing offset samples with silence : Yes
Delete leading and trailing silent blocks : No
Null samples used in CRC calculations : Yes
Used interface : Native Win32 interface for Win NT & 2000
Gap handling : Appended to previous track
Used output format : User Defined Encoder
Selected bitrate : 128 kBit/s
Quality : High
Add ID3 tag : No
Command line compressor : C:\Program Files (x86)\Exact Audio Copy\Flac\flac.exe
Additional command line options : -8 -V -T "ARTIST=%artist%" -T "TITLE=%title%" -T "ALBUM=%albumtitle%" -T "DATE=%year%" -T "TRACKNUMBER=%tracknr%" -T "GENRE=%genre%" -T "PERFORMER=%albuminterpret%" -T "COMPOSER=%composer%" -T "ALBUMARTIST=%albumartist%" -T "DISCNUMBER=%cdnumber%" -T "TOTALDISCS=%totalcds%" -T "TOTALTRACKS=%numtracks%" -T "COMMENT=EAC Secure Mode, Test & Copy, AccurateRip, FLAC -8" %source% -o %dest%
TOC of the extracted CD
Track | Start | Length | Start sector | End sector
---------------------------------------------------------
1 | 0:00.00 | 1:40.30 | 0 | 7529
2 | 1:40.30 | 5:37.72 | 7530 | 32876
3 | 7:18.27 | 7:15.60 | 32877 | 65561
4 | 14:34.12 | 5:09.00 | 65562 | 88736
5 | 19:43.12 | 1:51.44 | 88737 | 97105
6 | 21:34.56 | 7:06.55 | 97106 | 129110
7 | 28:41.36 | 5:16.58 | 129111 | 152868
8 | 33:58.19 | 10:49.57 | 152869 | 201600
Track 1
Filename D:\DL\Laurent Coulondre Trio - Schizophrenia (2016) [FLAC]\01 - Prelude to Schizophrenia.wav
Pre-gap length 0:00:02.00
Peak level 98.8 %
Extraction speed 4.1 X
Track quality 100.0 %
Test CRC 193C98DE
Copy CRC 193C98DE
Track not present in AccurateRip database
Copy OK
Track 2
Filename D:\DL\Laurent Coulondre Trio - Schizophrenia (2016) [FLAC]\02 - Schizophrenia.wav
Peak level 98.8 %
Extraction speed 5.1 X
Track quality 99.9 %
Test CRC 2A03AF67
Copy CRC 2A03AF67
Track not present in AccurateRip database
Copy OK
Track 3
Filename D:\DL\Laurent Coulondre Trio - Schizophrenia (2016) [FLAC]\03 - Palma's Waltz.wav
Peak level 98.8 %
Extraction speed 6.7 X
Track quality 100.0 %
Test CRC 5EDBF9C0
Copy CRC 5EDBF9C0
Track not present in AccurateRip database
Copy OK
Track 4
Filename D:\DL\Laurent Coulondre Trio - Schizophrenia (2016) [FLAC]\04 - Sunny Road Trip.wav
Peak level 98.8 %
Extraction speed 7.2 X
Track quality 100.0 %
Test CRC 1928BAE2
Copy CRC 1928BAE2
Track not present in AccurateRip database
Copy OK
Track 5
Filename D:\DL\Laurent Coulondre Trio - Schizophrenia (2016) [FLAC]\05 - Spring Bloom.wav
Peak level 59.8 %
Extraction speed 6.3 X
Track quality 100.0 %
Test CRC 6A26CD90
Copy CRC 6A26CD90
Track not present in AccurateRip database
Copy OK
Track 6
Filename D:\DL\Laurent Coulondre Trio - Schizophrenia (2016) [FLAC]\06 - Parallel Spaces.wav
Peak level 98.8 %
Extraction speed 8.1 X
Track quality 100.0 %
Test CRC 8160D2E6
Copy CRC 8160D2E6
Track not present in AccurateRip database
Copy OK
Track 7
Filename D:\DL\Laurent Coulondre Trio - Schizophrenia (2016) [FLAC]\07 - Bouncing Peanuts.wav
Peak level 98.8 %
Extraction speed 8.5 X
Track quality 100.0 %
Test CRC 7CACCCEE
Copy CRC 7CACCCEE
Track not present in AccurateRip database
Copy OK
Track 8
Filename D:\DL\Laurent Coulondre Trio - Schizophrenia (2016) [FLAC]\08 - Fun Keys.wav
Peak level 98.8 %
Extraction speed 8.8 X
Track quality 99.9 %
Test CRC 839669CD
Copy CRC 839669CD
Track not present in AccurateRip database
Copy OK
None of the tracks are present in the AccurateRip database
No errors occurred
End of status report
---- CUETools DB Plugin V2.1.6
[CTDB TOCID: BseSvjY0384nO8f9b6Slo2J8VYg-] database access error: Le nom distant n'a pas pu être résolu: 'db.cuetools.net'
==== Log checksum 5B43963DA7481D454C50CB995BC267438496C92535B157261E264D21B32566F8 ====
 
Содержание индексной карты (.CUE)
REM GENRE Jazz
REM DATE 2016
REM DISCID 560A8008
REM COMMENT "ExactAudioCopy v1.3"
PERFORMER "Laurent Coulondre Trio"
TITLE "Schizophrenia"
REM COMPOSER ""
FILE "01 - Prelude to Schizophrenia.wav" WAVE
TRACK 01 AUDIO
TITLE "Prelude to Schizophrenia"
PERFORMER "Laurent Coulondre Trio"
REM COMPOSER ""
INDEX 01 00:00:00
FILE "02 - Schizophrenia.wav" WAVE
TRACK 02 AUDIO
TITLE "Schizophrenia"
PERFORMER "Laurent Coulondre Trio"
REM COMPOSER ""
INDEX 01 00:00:00
FILE "03 - Palma's Waltz.wav" WAVE
TRACK 03 AUDIO
TITLE "Palma's Waltz"
PERFORMER "Laurent Coulondre Trio"
REM COMPOSER ""
INDEX 01 00:00:00
FILE "04 - Sunny Road Trip.wav" WAVE
TRACK 04 AUDIO
TITLE "Sunny Road Trip"
PERFORMER "Laurent Coulondre Trio"
REM COMPOSER ""
INDEX 01 00:00:00
FILE "05 - Spring Bloom.wav" WAVE
TRACK 05 AUDIO
TITLE "Spring Bloom"
PERFORMER "Laurent Coulondre Trio"
REM COMPOSER ""
INDEX 01 00:00:00
FILE "06 - Parallel Spaces.wav" WAVE
TRACK 06 AUDIO
TITLE "Parallel Spaces"
PERFORMER "Laurent Coulondre Trio"
REM COMPOSER ""
INDEX 01 00:00:00
FILE "07 - Bouncing Peanuts.wav" WAVE
TRACK 07 AUDIO
TITLE "Bouncing Peanuts"
PERFORMER "Laurent Coulondre Trio"
REM COMPOSER ""
INDEX 01 00:00:00
FILE "08 - Fun Keys.wav" WAVE
TRACK 08 AUDIO
TITLE "Fun Keys"
PERFORMER "Laurent Coulondre Trio"
REM COMPOSER ""
INDEX 01 00:00:00
22:06
286
Нет комментариев. Ваш будет первым!