Поиск

(Forró, Ethnic Jazz, Latin Jazz) [CD] Sivuca - Enfim Solo - 1997, FLAC (tracks+.cue), lossless

(Forró, Ethnic Jazz, Latin Jazz) [CD] Sivuca - Enfim Solo - 1997, FLAC (tracks+.cue), lossless
Треклист:
Sivuca / Enfim Solo
Жанр: Forró, Ethnic Jazz, Latin Jazz
Носитель: CD
Страна-производитель диска (релиза): Brazil
Год издания: 1997
Издатель (лейбл): Kuarup
Страна исполнителя (группы): Brazil
Аудиокодек: FLAC (*.flac)
Тип рипа: tracks+.cue
Битрейт аудио: lossless
Источник (релизер): Lezm
Наличие сканов в содержимом раздачи: нет
Треклист:
01 - Aboio
02 - Quando me Lembro
03 - Da cor do pecado
04 - Subindo ao céu
05 - Dino pintando o sete cordas
06 - Guacira
07 - Em nome do amor
08 - Ainda me recordo
09 - Lembrando Recife
10 - Forró praieiro
11 - Canção que se imaginara
12 - Aquariana
13 - Véu de grinalda
14 - Tocata em ré menor
 
Лог создания рипа
This log is created by Rubyripper, version 0.6.0
Website: http://code.google.com/p/rubyripper
Cdrom player used to rip:
hp CDDVDW TS-L633N 0300
Cdrom offset used: 0
Ripper used: cdparanoia
Matches required for all chunks: 2
Matches required for erroneous chunks: 2
Codec(s) used:
-flac -> --best -V (flac 1.2.1)
CDDB INFO
Artist = Sivuca
Album = Enfim Solo
Year = 1997
Genre = Instrumental
Tracks = 14 (14 selected)
01 - Aboio
02 - Quando me Lembro
03 - Da cor do pecado
04 - Subindo ao céu
05 - Dino pintando o sete cordas
06 - Guacira
07 - Em nome do amor
08 - Ainda me recordo
09 - Lembrando Recife
10 - Forró praieiro
11 - Canção que se imaginara
12 - Aquariana
13 - Véu de grinalda
14 - Tocata em ré menor
ADVANCED TOC ANALYSIS (with cdrdao)
...please be patient, this may take a while
Pregap detected for track 2 : 278 sectors
Pregap detected for track 3 : 243 sectors
Pregap detected for track 4 : 117 sectors
Pregap detected for track 5 : 242 sectors
Pregap detected for track 6 : 215 sectors
Pregap detected for track 7 : 85 sectors
Pregap detected for track 8 : 155 sectors
Pregap detected for track 9 : 133 sectors
Pregap detected for track 10 : 92 sectors
Pregap detected for track 12 : 123 sectors
Pregap detected for track 13 : 193 sectors
Pregap detected for track 14 : 118 sectors
STATUS
Starting to rip track 1, trial #1 (14 seconds)
Starting to rip track 1, trial #2 (13 seconds)
Analyzing files for mismatching chunks
Every chunk matched 2 times
MD5 sum: cbda2238b500820b836a55b1f9c1445d
Starting to rip track 2, trial #1 (66 seconds)
Starting to rip track 2, trial #2 (64 seconds)
Analyzing files for mismatching chunks
Every chunk matched 2 times
MD5 sum: 711a8e96ce7d04eb1d57cc7013ea7a40
Starting to rip track 3, trial #1 (50 seconds)
Starting to rip track 3, trial #2 (46 seconds)
Analyzing files for mismatching chunks
Every chunk matched 2 times
MD5 sum: b1bca7eea7a4c87cfe03b08addb3ab72
Starting to rip track 4, trial #1 (46 seconds)
Starting to rip track 4, trial #2 (43 seconds)
Analyzing files for mismatching chunks
Every chunk matched 2 times
MD5 sum: b3b3b40f93bd4a0112777351a0d40e7b
Starting to rip track 5, trial #1 (50 seconds)
Starting to rip track 5, trial #2 (47 seconds)
Analyzing files for mismatching chunks
Every chunk matched 2 times
MD5 sum: 4137f4168f6c86c3f4744facd381b4d6
Starting to rip track 6, trial #1 (35 seconds)
Starting to rip track 6, trial #2 (32 seconds)
Analyzing files for mismatching chunks
Every chunk matched 2 times
MD5 sum: 16a1361481767bab5e510ac1e1d7410a
The drive is spinning for more than 30 minutes.
Taking a timeout of 2 minutes to protect the hardware.
Starting to rip track 7, trial #1 (42 seconds)
Starting to rip track 7, trial #2 (39 seconds)
Analyzing files for mismatching chunks
Every chunk matched 2 times
MD5 sum: faffbd3fd58c6acfe4384bc0bafe755a
Starting to rip track 8, trial #1 (32 seconds)
Starting to rip track 8, trial #2 (30 seconds)
Analyzing files for mismatching chunks
Every chunk matched 2 times
MD5 sum: 79c2a0f069ab0c1cb29bc36f5c31d84a
Starting to rip track 9, trial #1 (34 seconds)
Starting to rip track 9, trial #2 (31 seconds)
Analyzing files for mismatching chunks
Every chunk matched 2 times
MD5 sum: 6cdac8016b50ed224689888d4e094649
Starting to rip track 10, trial #1 (36 seconds)
Starting to rip track 10, trial #2 (32 seconds)
Analyzing files for mismatching chunks
Every chunk matched 2 times
MD5 sum: c710361c06e628a1aebed712a492cbc9
Starting to rip track 11, trial #1 (39 seconds)
Starting to rip track 11, trial #2 (36 seconds)
Analyzing files for mismatching chunks
Every chunk matched 2 times
MD5 sum: 62a86fdd3fc95597033f4093366c6dab
Starting to rip track 12, trial #1 (36 seconds)
Starting to rip track 12, trial #2 (32 seconds)
Analyzing files for mismatching chunks
Every chunk matched 2 times
MD5 sum: 5f75b19357c40996587df3cbec08bea2
The drive is spinning for more than 30 minutes.
Taking a timeout of 2 minutes to protect the hardware.
Starting to rip track 13, trial #1 (41 seconds)
Starting to rip track 13, trial #2 (38 seconds)
Analyzing files for mismatching chunks
Every chunk matched 2 times
MD5 sum: 370ffd505675a6145232706a5d5ea8c4
Starting to rip track 14, trial #1 (25 seconds)
Starting to rip track 14, trial #2 (23 seconds)
Analyzing files for mismatching chunks
Every chunk matched 2 times
MD5 sum: fb085d1a575c752a19d04feea3ba8d4b
RIPPING SUMMARY
All chunks were tried to match at least 2 times.
None of the tracks gave any problems
 
Содержание индексной карты (.CUE)
REM GENRE Instrumental
REM DATE 1997
REM COMMENT "Rubyripper 0.6.0"
REM DISCID b80aa10e
REM FREEDB_QUERY "b80aa10e 14 150 3265 22225 37322 52639 69805 81707 97847 110440 124247 139457 156500 172740 192040 2723"
PERFORMER "Sivuca"
TITLE "Enfim Solo"
FILE "01 - Aboio.flac" WAVE
TRACK 01 AUDIO
TITLE "Aboio"
PERFORMER "Sivuca"
INDEX 01 00:00:00
FILE "02 - Quando me Lembro.flac" WAVE
TRACK 02 AUDIO
TITLE "Quando me Lembro"
PERFORMER "Sivuca"
INDEX 00 00:00:00
INDEX 01 00:03:53
FILE "03 - Da cor do pecado.flac" WAVE
TRACK 03 AUDIO
TITLE "Da cor do pecado"
PERFORMER "Sivuca"
INDEX 00 00:00:00
INDEX 01 00:03:18
FILE "04 - Subindo ao céu.flac" WAVE
TRACK 04 AUDIO
TITLE "Subindo ao céu"
PERFORMER "Sivuca"
INDEX 00 00:00:00
INDEX 01 00:01:42
FILE "05 - Dino pintando o sete cordas.flac" WAVE
TRACK 05 AUDIO
TITLE "Dino pintando o sete cordas"
PERFORMER "Sivuca"
INDEX 00 00:00:00
INDEX 01 00:03:17
FILE "06 - Guacira.flac" WAVE
TRACK 06 AUDIO
TITLE "Guacira"
PERFORMER "Sivuca"
INDEX 00 00:00:00
INDEX 01 00:02:65
FILE "07 - Em nome do amor.flac" WAVE
TRACK 07 AUDIO
TITLE "Em nome do amor"
PERFORMER "Sivuca"
INDEX 00 00:00:00
INDEX 01 00:01:10
FILE "08 - Ainda me recordo.flac" WAVE
TRACK 08 AUDIO
TITLE "Ainda me recordo"
PERFORMER "Sivuca"
INDEX 00 00:00:00
INDEX 01 00:02:05
FILE "09 - Lembrando Recife.flac" WAVE
TRACK 09 AUDIO
TITLE "Lembrando Recife"
PERFORMER "Sivuca"
INDEX 00 00:00:00
INDEX 01 00:01:58
FILE "10 - Forró praieiro.flac" WAVE
TRACK 10 AUDIO
TITLE "Forró praieiro"
PERFORMER "Sivuca"
INDEX 00 00:00:00
INDEX 01 00:01:17
FILE "11 - Canção que se imaginara.flac" WAVE
TRACK 11 AUDIO
TITLE "Canção que se imaginara"
PERFORMER "Sivuca"
INDEX 01 00:00:00
FILE "12 - Aquariana.flac" WAVE
TRACK 12 AUDIO
TITLE "Aquariana"
PERFORMER "Sivuca"
INDEX 00 00:00:00
INDEX 01 00:01:48
FILE "13 - Véu de grinalda.flac" WAVE
TRACK 13 AUDIO
TITLE "Véu de grinalda"
PERFORMER "Sivuca"
INDEX 00 00:00:00
INDEX 01 00:02:43
FILE "14 - Tocata em ré menor.flac" WAVE
TRACK 14 AUDIO
TITLE "Tocata em ré menor"
PERFORMER "Sivuca"
INDEX 00 00:00:00
INDEX 01 00:01:43
 
Об исполнителе (группе)
Noted composer, arranger, and accordionist, Sivuca developed a very successful international solo career after having performed with Baden Powell, Toots Thielemans, Chiquinho do Acordeon, Radamés Gnattali, Rosinha de Valença, Waldir Azevedo, Harry Belafonte, and Miriam Makeba, among many others. As a composer, Sivuca wrote the classics "Adeus, Maria Fulô" (with Humberto Teixeira), "João e Maria" (with Chico Buarque), and had hits with "Feira de Mangaio" (with his wife Glorinha Gadelha) recorded by Clara Nunes and "No Tempo dos Quintais" (with Paulo Tapajós). His partners were artists such as Paulinho Tapajós, Paulo César Pinheiro, Luís Bandeira, Armandinho, Hermeto Pascoal, and Chiquinho do Acordeon.
16:53
343
Нет комментариев. Ваш будет первым!