Поиск

(Folk, Vocal Jazz, World Fusion) Umberto Sangiovanni & Daunia Orchestra - La Controra - 2004, FLAC (tracks+.cue), lossless

(Folk, Vocal Jazz, World Fusion) Umberto Sangiovanni & Daunia Orchestra - La Controra - 2004, FLAC (tracks+.cue), lossless
Umberto Sangiovanni & Daunia Orchestra / La Controra
Жанр: Folk, Vocal Jazz, World Fusion
Страна: Italy
Год издания: 2004
Издатель (лейбл): Rai Trade
Номер по каталогу: RTP 0019
Аудиокодек: FLAC (*.flac)
Тип рипа: tracks+.cue
Битрейт аудио: lossless
Продолжительность: 00:51:01
Источник (релизер): opeth
Наличие сканов в содержимом раздачи: tiff, 700 dpi
Треклист:
01. Senza Ca spasse (3:23)
02. Si Vedra (4:45)
03. All'Amereca (4:32)
04. Lu mare da (6:08)
05. Spuntanata (5:49)
06. Vurrja (4:39)
07. La Controra (4:22)
08. Sune Chitarra (4:39)
09. Chiane Chiane (5:37)
10. Durme (4:12)
11. Jalant (2:55)
Состав:
Umberto Sangiovanni (piano, tastiere, basso sintetizzato)
Rossella Ruini (voce)
Edoardo Bignozzi (chitarra)
Massimo d'Agostino (batteria)
Marco Camboni (contrabbasso)
Marcello Fiorini (fisarmonica)
Simone Salza (clarinetto in 11)
Andrea Avena (contrabbasso in 2 e 8)
Предварительное прослушивание на Amazon.
 
Лог создания рипа
Exact Audio Copy V1.0 beta 2 from 29. April 2011
EAC extraction logfile from 26. May 2012, 16:47
Umberto Sangiovanni & Daunia orchestra / La Controra
Used drive : PLDS DVD+-RW DS-8A5SH Adapter: 0 ID: 0
Read mode : Secure
Utilize accurate stream : Yes
Defeat audio cache : Yes
Make use of C2 pointers : No
Read offset correction : 6
Overread into Lead-In and Lead-Out : No
Fill up missing offset samples with silence : Yes
Delete leading and trailing silent blocks : No
Null samples used in CRC calculations : Yes
Used interface : Native Win32 interface for Win NT & 2000
Gap handling : Appended to previous track
Used output format : User Defined Encoder
Selected bitrate : 256 kBit/s
Quality : High
Add ID3 tag : No
Command line compressor : C:\Program Files (x86)\FLAC\flac.exe
Additional command line options : -8 -V -T "ARTIST=%artist%" -T "TITLE=%title%" -T "ALBUM=%albumtitle%" -T "DATE=%year%" -T "TRACKNUMBER=%tracknr%" -T "TOTALTRACKS=%numtracks%" -T "GENRE=%genre%" -T "ALBUMARTIST=%albumartist%" -T "ALBUM ARTIST=%albumartist%
TOC of the extracted CD
Track | Start | Length | Start sector | End sector
---------------------------------------------------------
1 | 0:00.00 | 3:22.56 | 0 | 15205
2 | 3:22.56 | 4:45.36 | 15206 | 36616
3 | 8:08.17 | 4:31.38 | 36617 | 56979
4 | 12:39.55 | 6:08.23 | 56980 | 84602
5 | 18:48.03 | 5:48.38 | 84603 | 110740
6 | 24:36.41 | 4:38.58 | 110741 | 131648
7 | 29:15.24 | 4:22.14 | 131649 | 151312
8 | 33:37.38 | 4:39.14 | 151313 | 172251
9 | 38:16.52 | 5:36.67 | 172252 | 197518
10 | 43:53.44 | 4:12.18 | 197519 | 216436
11 | 48:05.62 | 2:55.33 | 216437 | 229594
Track 1
Filename C:\Users\porcupine\Desktop\EAC\01 - Senza Ca spasse.wav
Pre-gap length 0:00:02.00
Peak level 97.5 %
Extraction speed 1.0 X
Track quality 100.0 %
Test CRC CD197AAE
Copy CRC CD197AAE
Accurately ripped (confidence 1) [3443B7AD] (AR v1)
Copy OK
Track 2
Filename C:\Users\porcupine\Desktop\EAC\02 - Si Vedra.wav
Pre-gap length 0:00:01.16
Peak level 99.0 %
Extraction speed 1.2 X
Track quality 100.0 %
Test CRC 95D40814
Copy CRC 95D40814
Accurately ripped (confidence 1) [3861C1B1] (AR v1)
Copy OK
Track 3
Filename C:\Users\porcupine\Desktop\EAC\03 - All'Amereca.wav
Pre-gap length 0:00:03.57
Peak level 99.7 %
Extraction speed 1.3 X
Track quality 100.0 %
Test CRC 0DA33424
Copy CRC 0DA33424
Accurately ripped (confidence 1) [DA380368] (AR v1)
Copy OK
Track 4
Filename C:\Users\porcupine\Desktop\EAC\04 - Lu mare da.wav
Pre-gap length 0:00:03.00
Peak level 99.7 %
Extraction speed 1.5 X
Track quality 100.0 %
Test CRC 29777200
Copy CRC 29777200
Accurately ripped (confidence 1) [37BB5066] (AR v1)
Copy OK
Track 5
Filename C:\Users\porcupine\Desktop\EAC\05 - Spuntanata.wav
Pre-gap length 0:00:02.14
Peak level 96.3 %
Extraction speed 1.6 X
Track quality 100.0 %
Test CRC 002DB2F1
Copy CRC 002DB2F1
Accurately ripped (confidence 1) [744144D1] (AR v1)
Copy OK
Track 6
Filename C:\Users\porcupine\Desktop\EAC\06 - Vurrja.wav
Pre-gap length 0:00:03.00
Peak level 99.4 %
Extraction speed 1.7 X
Track quality 100.0 %
Test CRC 6541E34B
Copy CRC 6541E34B
Accurately ripped (confidence 1) [98B6E3E2] (AR v1)
Copy OK
Track 7
Filename C:\Users\porcupine\Desktop\EAC\07 - La Controra.wav
Pre-gap length 0:00:03.53
Peak level 99.4 %
Extraction speed 1.8 X
Track quality 100.0 %
Test CRC 431A3A05
Copy CRC 431A3A05
Accurately ripped (confidence 1) [908DB06B] (AR v1)
Copy OK
Track 8
Filename C:\Users\porcupine\Desktop\EAC\08 - Sune Chitarra.wav
Pre-gap length 0:00:03.00
Peak level 99.4 %
Extraction speed 1.7 X
Track quality 99.9 %
Test CRC FA6E57C4
Copy CRC FA6E57C4
Accurately ripped (confidence 1) [F80316D6] (AR v1)
Copy OK
Track 9
Filename C:\Users\porcupine\Desktop\EAC\09 - Chiane Chiane.wav
Pre-gap length 0:00:03.00
Peak level 99.5 %
Extraction speed 2.0 X
Track quality 100.0 %
Test CRC 2D165FC1
Copy CRC 2D165FC1
Accurately ripped (confidence 1) [45B7A19F] (AR v1)
Copy OK
Track 10
Filename C:\Users\porcupine\Desktop\EAC\10 - Durme.wav
Pre-gap length 0:00:03.00
Peak level 99.4 %
Extraction speed 2.0 X
Track quality 100.0 %
Test CRC D1B901D1
Copy CRC D1B901D1
Accurately ripped (confidence 1) [E4A07837] (AR v1)
Copy OK
Track 11
Filename C:\Users\porcupine\Desktop\EAC\11 - Jalant.wav
Pre-gap length 0:00:03.57
Peak level 100.0 %
Extraction speed 2.0 X
Track quality 100.0 %
Test CRC 4A5422E6
Copy CRC 4A5422E6
Accurately ripped (confidence 1) [41801665] (AR v1)
Copy OK
All tracks accurately ripped
No errors occurred
End of status report
==== Log checksum 145C3E3EF2A958475AF1DB0FC9BE9237983D8D8BEA214AC5550BBB9246953357 ====
 
Содержание индексной карты (.CUE)
REM DATE 2004
REM DISCID 9A0BF50B
REM COMMENT "ExactAudioCopy v1.0b2"
PERFORMER "Umberto Sangiovanni & Daunia orchestra"
TITLE "La Controra"
FILE "01 - Senza Ca spasse.wav" WAVE
TRACK 01 AUDIO
TITLE "Senza Ca spasse"
PERFORMER "Umberto Sangiovanni & Daunia orchestra"
INDEX 01 00:00:00
TRACK 02 AUDIO
TITLE "Si Vedra"
PERFORMER "Umberto Sangiovanni & Daunia orchestra"
INDEX 00 03:21:40
FILE "02 - Si Vedra.wav" WAVE
INDEX 01 00:00:00
TRACK 03 AUDIO
TITLE "All'Amereca"
PERFORMER "Umberto Sangiovanni & Daunia orchestra"
INDEX 00 04:41:54
FILE "03 - All'Amereca.wav" WAVE
INDEX 01 00:00:00
TRACK 04 AUDIO
TITLE "Lu mare da"
PERFORMER "Umberto Sangiovanni & Daunia orchestra"
INDEX 00 04:28:38
FILE "04 - Lu mare da.wav" WAVE
INDEX 01 00:00:00
TRACK 05 AUDIO
TITLE "Spuntanata"
PERFORMER "Umberto Sangiovanni & Daunia orchestra"
INDEX 00 06:06:09
FILE "05 - Spuntanata.wav" WAVE
INDEX 01 00:00:00
TRACK 06 AUDIO
TITLE "Vurrja"
PERFORMER "Umberto Sangiovanni & Daunia orchestra"
INDEX 00 05:45:38
FILE "06 - Vurrja.wav" WAVE
INDEX 01 00:00:00
TRACK 07 AUDIO
TITLE "La Controra"
PERFORMER "Umberto Sangiovanni & Daunia orchestra"
INDEX 00 04:35:05
FILE "07 - La Controra.wav" WAVE
INDEX 01 00:00:00
TRACK 08 AUDIO
TITLE "Sune Chitarra"
PERFORMER "Umberto Sangiovanni & Daunia orchestra"
INDEX 00 04:19:14
FILE "08 - Sune Chitarra.wav" WAVE
INDEX 01 00:00:00
TRACK 09 AUDIO
TITLE "Chiane Chiane"
PERFORMER "Umberto Sangiovanni & Daunia orchestra"
INDEX 00 04:36:14
FILE "09 - Chiane Chiane.wav" WAVE
INDEX 01 00:00:00
TRACK 10 AUDIO
TITLE "Durme"
PERFORMER "Umberto Sangiovanni & Daunia orchestra"
INDEX 00 05:33:67
FILE "10 - Durme.wav" WAVE
INDEX 01 00:00:00
TRACK 11 AUDIO
TITLE "Jalant"
PERFORMER "Umberto Sangiovanni & Daunia orchestra"
INDEX 00 04:08:36
FILE "11 - Jalant.wav" WAVE
INDEX 01 00:00:00
03:56
378
Нет комментариев. Ваш будет первым!