Поиск

(Folk-Jazz, Roots, Vocal Jazz) Bethany & Rufus Roots Quartet - Live a FIP - 2009, FLAC (tracks+.cue) lossless

(Folk-Jazz, Roots, Vocal Jazz) Bethany & Rufus Roots Quartet - Live a FIP - 2009, FLAC (tracks+.cue) lossless
Треклист:
Bethany & Rufus Roots Quartet / Live à FIP
Жанр: Folk-Jazz, Roots, Vocal Jazz
Страна-производитель диска: France
Год издания диска: 2009
Издатель (лейбл): Daqui Records
Страна: USA, Canada
Аудио кодек: FLAC (*.flac)
Тип рипа: tracks+.cue
Битрейт аудио: lossless
Продолжительность: 0:55:54
Источник (релизер): motormuijs
Наличие сканов в содержимом раздачи: нет
Треклист:
01. Who's gonna be your man ? (3:45)
02. Linin' Track (4:43)
03. No More (4:58)
04. If I Had my Way (3:22)
05. Sail Away Ladies (6:32)
06. This Train (3:18)
07. No Mercy in the Land (4:02)
08. Iraq (4:25)
09. Oh Death (5:15)
10. St James Infirmary (7:16)
11. 900 Miles (3:31)
12. Mary Mack (4:46)
 
EAC log
Exact Audio Copy V0.99 prebeta 5 from 4. May 2009
EAC extraction logfile from 11. December 2010, 9:29
Bethany & Rufus Roots Quartet / Live а FIP
Used drive : ASUS DRW-2014S1 Adapter: 0 ID: 1
Read mode : Secure
Utilize accurate stream : Yes
Defeat audio cache : Yes
Make use of C2 pointers : No
Read offset correction : 6
Overread into Lead-In and Lead-Out : No
Fill up missing offset samples with silence : Yes
Delete leading and trailing silent blocks : No
Null samples used in CRC calculations : Yes
Used interface : Installed external ASPI interface
Gap handling : Appended to previous track
Used output format : User Defined Encoder
Selected bitrate : 320 kBit/s
Quality : High
Add ID3 tag : No
Command line compressor : C:\Program Files\Exact Audio Copy\flac.exe
Additional command line options : -8 -V -T "artist=%a" -T "title=%t" -T "album=%g" -T "date=%y" -T "tracknumber=%n" -T "genre=%m" -T "comment=High Quality, EAC secure, Lossless flac " %s
TOC of the extracted CD
Track | Start | Length | Start sector | End sector
---------------------------------------------------------
1 | 0:00.00 | 3:45.11 | 0 | 16885
2 | 3:45.11 | 4:42.70 | 16886 | 38105
3 | 8:28.06 | 4:57.54 | 38106 | 60434
4 | 13:25.60 | 3:22.07 | 60435 | 75591
5 | 16:47.67 | 6:32.05 | 75592 | 104996
6 | 23:19.72 | 3:18.31 | 104997 | 119877
7 | 26:38.28 | 4:01.50 | 119878 | 138002
8 | 30:40.03 | 4:25.29 | 138003 | 157906
9 | 35:05.32 | 5:15.29 | 157907 | 181560
10 | 40:20.61 | 7:16.12 | 181561 | 214272
11 | 47:36.73 | 3:31.32 | 214273 | 230129
12 | 51:08.30 | 4:46.01 | 230130 | 251580
Track 1
Filename F:\whatcd\a\Bethany & Rufus Roots Quartet - 2009 - Live а FIP\01 - Who's gonna be your man .wav
Pre-gap length 0:00:02.00
Peak level 100.0 %
Track quality 99.9 %
Test CRC 2A2BCDF8
Copy CRC 2A2BCDF8
Accurately ripped (confidence 2) [36CE68EE]
Copy OK
Track 2
Filename F:\whatcd\a\Bethany & Rufus Roots Quartet - 2009 - Live а FIP\02 - Linin' Track.wav
Peak level 100.0 %
Track quality 99.9 %
Test CRC 5FF4C56A
Copy CRC 5FF4C56A
Accurately ripped (confidence 2) [1B0F1D21]
Copy OK
Track 3
Filename F:\whatcd\a\Bethany & Rufus Roots Quartet - 2009 - Live а FIP\03 - No More.wav
Peak level 91.2 %
Track quality 100.0 %
Test CRC 5C8E5B01
Copy CRC 5C8E5B01
Accurately ripped (confidence 2) [EAAB2C81]
Copy OK
Track 4
Filename F:\whatcd\a\Bethany & Rufus Roots Quartet - 2009 - Live а FIP\04 - If I Had my Way.wav
Peak level 100.0 %
Track quality 100.0 %
Test CRC 625ECEBB
Copy CRC 625ECEBB
Track not present in AccurateRip database
Copy OK
Track 5
Filename F:\whatcd\a\Bethany & Rufus Roots Quartet - 2009 - Live а FIP\05 - Sail Away Ladies.wav
Peak level 100.0 %
Track quality 100.0 %
Test CRC 3EE12CC1
Copy CRC 3EE12CC1
Track not present in AccurateRip database
Copy OK
Track 6
Filename F:\whatcd\a\Bethany & Rufus Roots Quartet - 2009 - Live а FIP\06 - This Train.wav
Peak level 100.0 %
Track quality 100.0 %
Test CRC 9AA27959
Copy CRC 9AA27959
Accurately ripped (confidence 2) [8025A306]
Copy OK
Track 7
Filename F:\whatcd\a\Bethany & Rufus Roots Quartet - 2009 - Live а FIP\07 - No Mercy in the Land.wav
Peak level 100.0 %
Track quality 100.0 %
Test CRC E2683F85
Copy CRC E2683F85
Accurately ripped (confidence 2) [E785ACD7]
Copy OK
Track 8
Filename F:\whatcd\a\Bethany & Rufus Roots Quartet - 2009 - Live а FIP\08 - Iraq.wav
Peak level 79.4 %
Track quality 100.0 %
Test CRC 42993028
Copy CRC 42993028
Accurately ripped (confidence 2) [069613BB]
Copy OK
Track 9
Filename F:\whatcd\a\Bethany & Rufus Roots Quartet - 2009 - Live а FIP\09 - Oh Death.wav
Peak level 100.0 %
Track quality 100.0 %
Test CRC 63BF5AB6
Copy CRC 63BF5AB6
Accurately ripped (confidence 2) [F53B0CF6]
Copy OK
Track 10
Filename F:\whatcd\a\Bethany & Rufus Roots Quartet - 2009 - Live а FIP\10 - St James Infirmary.wav
Peak level 100.0 %
Track quality 100.0 %
Test CRC CAFF568C
Copy CRC CAFF568C
Accurately ripped (confidence 2) [9CFE7663]
Copy OK
Track 11
Filename F:\whatcd\a\Bethany & Rufus Roots Quartet - 2009 - Live а FIP\11 - 900 Miles.wav
Peak level 100.0 %
Track quality 100.0 %
Test CRC 07E6B0C5
Copy CRC 07E6B0C5
Accurately ripped (confidence 2) [60DD5E18]
Copy OK
Track 12
Filename F:\whatcd\a\Bethany & Rufus Roots Quartet - 2009 - Live а FIP\12 - Mary Mack.wav
Peak level 100.0 %
Track quality 100.0 %
Test CRC F1E4043F
Copy CRC F1E4043F
Accurately ripped (confidence 2) [EBDA799C]
Copy OK
10 track(s) accurately ripped
2 track(s) not present in the AccurateRip database
Some tracks could not be verified as accurate
No errors occurred
End of status report
 
auCDtect's log
-----------------------
DON'T MODIFY THIS FILE
-----------------------
PERFORMER: auCDtect Task Manager, ver. 1.5.1RC3 build 1.5.1.4
Copyright (c) 2008-2010 y-soft. All rights reserved
http://y-soft.org
ANALYZER: auCDtect: CD records authenticity detector, version 0.8.2
Copyright (c) 2004 Oleg Berngardt. All rights reserved.
Copyright (c) 2004 Alexander Djourik. All rights reserved.
FILE: 12 - Mary Mack.flac
Size: 31307965 Hash: 6637B1E98A41A94364EAC4AC6BCF3A70 Accuracy: -m0
Conclusion: CDDA 100%
Signature: 87B1E04968361E8163A932BF81FB43C0807037B4
FILE: 11 - 900 Miles.flac
Size: 21964576 Hash: E1BA5F403B1FC0B44B1600937088357B Accuracy: -m0
Conclusion: CDDA 100%
Signature: FB900E4F0EBEC8D88A2145BE43BCACE9B2FA8B35
FILE: 10 - St James Infirmary.flac
Size: 35824745 Hash: 9744CC5BD29E8025684AF46B4A8820B4 Accuracy: -m0
Conclusion: CDDA 100%
Signature: 757EBE18F5A6256C26F9A737B80C2C53CB50A761
FILE: 09 - Oh Death.flac
Size: 33500453 Hash: 1697B354C9EFFE493C724F163DB42BE9 Accuracy: -m0
Conclusion: MPEG 95%
Signature: E9E76954F60421A0D51AB273F1C8B4C1F5AFDBE4
FILE: 08 - Iraq.flac
Size: 24742155 Hash: C2AD64D87C1164007960D79C1D9ADF2C Accuracy: -m0
Conclusion: CDDA 100%
Signature: 4882503AB7877734BE9A16CA65972D183A8215EF
FILE: 07 - No Mercy in the Land.flac
Size: 21573895 Hash: D214A6348060A509D4169F4B6A0ADA19 Accuracy: -m0
Conclusion: CDDA 100%
Signature: 44E98FD0BA36B17263B2C0858737E4E8102B3B59
FILE: 06 - This Train.flac
Size: 19228925 Hash: 62F5F265C9D4D34BDB33B67BBF1B5405 Accuracy: -m0
Conclusion: CDDA 100%
Signature: BFC4D439396907A1150F8934D83DBD4A04CB28BD
FILE: 05 - Sail Away Ladies.flac
Size: 38101907 Hash: 6BBC5118E81FFE07C6B5C8230C4C88F9 Accuracy: -m0
Conclusion: CDDA 99%
Signature: A27B7ACBE27A37BB5D28A0DC6C2DF0013A282F54
FILE: 04 - If I Had my Way.flac
Size: 22745990 Hash: 726C0031566A0813251EAED162D7C7EF Accuracy: -m0
Conclusion: CDDA 100%
Signature: 67886442BDC406DF0B9A4DD6E3296B9CB1DAB057
FILE: 03 - No More.flac
Size: 25060687 Hash: DBF8F931BE0D3A04339E08DA178080DD Accuracy: -m0
Conclusion: CDDA 100%
Signature: 24A41FAD67DD9F2195DA1AE8A9B4548C9EDD451A
FILE: 02 - Linin' Track.flac
Size: 32559334 Hash: 8A54E67231C07E55BC57B3D248B96D82 Accuracy: -m0
Conclusion: CDDA 100%
Signature: CE670DD49BBC8076B2347D8A10E3C09170231696
FILE: 01 - Who's gonna be your man .flac
Size: 22864095 Hash: A8F95C1F6B2E22E731D48A1C5A06F6AA Accuracy: -m0
Conclusion: CDDA 100%
Signature: 4152EAE8257C393E85ACF7FCCFB5C8FD5562E111
 
.fixed.cue
REM GENRE Jazz
REM DATE 2009
REM DISCID 7D0D1A0C
REM COMMENT "ExactAudioCopy v0.99pb5"
PERFORMER "Bethany & Rufus Roots Quartet"
TITLE "Live а FIP"
FILE "01 - Who's gonna be your man .wav" WAVE
TRACK 01 AUDIO
TITLE "Who's gonna be your man ?"
PERFORMER "Bethany & Rufus Roots Quartet"
INDEX 01 00:00:00
FILE "02 - Linin' Track.wav" WAVE
TRACK 02 AUDIO
TITLE "Linin' Track"
PERFORMER "Bethany & Rufus Roots Quartet"
INDEX 01 00:00:00
FILE "03 - No More.wav" WAVE
TRACK 03 AUDIO
TITLE "No More"
PERFORMER "Bethany & Rufus Roots Quartet"
INDEX 01 00:00:00
FILE "04 - If I Had my Way.wav" WAVE
TRACK 04 AUDIO
TITLE "If I Had my Way"
PERFORMER "Bethany & Rufus Roots Quartet"
INDEX 01 00:00:00
FILE "05 - Sail Away Ladies.wav" WAVE
TRACK 05 AUDIO
TITLE "Sail Away Ladies"
PERFORMER "Bethany & Rufus Roots Quartet"
INDEX 01 00:00:00
FILE "06 - This Train.wav" WAVE
TRACK 06 AUDIO
TITLE "This Train"
PERFORMER "Bethany & Rufus Roots Quartet"
INDEX 01 00:00:00
FILE "07 - No Mercy in the Land.wav" WAVE
TRACK 07 AUDIO
TITLE "No Mercy in the Land"
PERFORMER "Bethany & Rufus Roots Quartet"
INDEX 01 00:00:00
FILE "08 - Iraq.wav" WAVE
TRACK 08 AUDIO
TITLE "Iraq"
PERFORMER "Bethany & Rufus Roots Quartet"
INDEX 01 00:00:00
FILE "09 - Oh Death.wav" WAVE
TRACK 09 AUDIO
TITLE "Oh Death"
PERFORMER "Bethany & Rufus Roots Quartet"
INDEX 01 00:00:00
FILE "10 - St James Infirmary.wav" WAVE
TRACK 10 AUDIO
TITLE "St James Infirmary"
PERFORMER "Bethany & Rufus Roots Quartet"
INDEX 01 00:00:00
FILE "11 - 900 Miles.wav" WAVE
TRACK 11 AUDIO
TITLE "900 Miles"
PERFORMER "Bethany & Rufus Roots Quartet"
INDEX 01 00:00:00
FILE "12 - Mary Mack.wav" WAVE
TRACK 12 AUDIO
TITLE "Mary Mack"
PERFORMER "Bethany & Rufus Roots Quartet"
INDEX 01 00:00:00
 
Log Accurip
[Verification date: 20.03.2011 17:33:41]
[Disc ID: 00184065-00e46030-7d0d1a0c]
Track [ CRC ] Status
01 [36ce68ee] (02/02) Accurately ripped as in pressing(s) #1
02 [1b0f1d21] (02/02) Accurately ripped as in pressing(s) #1
03 [eaab2c81] (02/02) Accurately ripped as in pressing(s) #1
04 [10aea04a] (00/00) No matches
05 [70c62b74] (00/00) No matches
06 [8025a306] (02/02) Accurately ripped as in pressing(s) #1
07 [e785acd7] (02/02) Accurately ripped as in pressing(s) #1
08 [069613bb] (02/02) Accurately ripped as in pressing(s) #1
09 [f53b0cf6] (02/02) Accurately ripped as in pressing(s) #1
10 [9cfe7663] (02/02) Accurately ripped as in pressing(s) #1
11 [60dd5e18] (02/02) Accurately ripped as in pressing(s) #1
12 [ebda799c] (02/02) Accurately ripped as in pressing(s) #1
Track [ CRC32 ] [W/O NULL] [ LOG ]
-- [DEC32022] [CCD4D825]
01 [2A2BCDF8] [60C702CF] CRC32
02 [5FF4C56A] [522FE744] CRC32
03 [5C8E5B01] [A7C9E5FF] CRC32
04 [625ECEBB] [400FC584] CRC32
05 [3EE12CC1] [DEC99EF1] CRC32
06 [9AA27959] [17715D2E] CRC32
07 [E2683F85] [1FB39B7A] CRC32
08 [42993028] [6B25E793] CRC32
09 [63BF5AB6] [1D67A08D] CRC32
10 [CAFF568C] [1169BAFC] CRC32
11 [07E6B0C5] [842EDFAA] CRC32
12 [F1E4043F] [F09207B8] CRC32
 
Об альбоме (english)
New World/Folk/Roots duo Bethany & Rufus along with Fulani flutist Yacouba Moumouni and Afro Haitian drummer 'Bonga' Jean-Baptiste will release a new CD, entitled "Live A Fip" on October 22, 2009. The Bethany & Rufus Roots Quartet "Live A Fip" CD features 12 tracks, and will debut in Europe on the Daqui Records label.
The "Live A Fip" CD release was a natural extension of Bethany & Rufus' collaborations with Jean-Baptiste and Moumouni. Bethany & Rufus, who share the same label with Moumouni, also shared the stage with him for one song during the 10th anniversary celebration of Daqui Records. They knew instantly that their political beliefs and musical chemistry would bond them together, catapulting them forward with continued performances. The trio became a quartet when 'Bonga' Jean-Baptiste was invited to perform with them the following summer at Les Nuits Atypique. During a promotional radio spot for the festival on Radio France in March 2009, the quartet was asked to perform live on the Live A Fip radio series, and the rest is history.
The Bethany & Rufus Roots Quartet's Live A Fip CD's strength lies not just in each artist's singular talents, but in their capacity to combine their abilities in a way that complements each member of the group to bring about a sound that is unique and groundbreaking, while incorporating concerns about global injustices, violence, and inequalities. Live A Fip is the product of a world where people and societies are interconnected, converging, and in turmoil.
One reviewer describes "Live A Fip," as "like nothing you've ever heard before. Styles from everywhere and anywhere come together seamlessly. One hears distinctly Afro-Cuban rhythms pop under driving bass lines, folksy lyrics and screaming flute. "Death Don't Have No Mercy" is particularly characteristic of this mixing and meshing. The cello is inescapably funky, the bongos complexify the rhythms, the flute line seethes with fiery reverberance, and Bethany's vocals lament the world in a way that only American folk music can."
Bethany Yarrow's voice has a deep resonance, a profound yearning that blends perfectly with the earthy sound of her band. Perhaps her voice sounds so good in this group because all of the instruments have a distinctly vocal quality about them. Yacouba Moumouni's flute imparts an especially human sound, a personification of woody vibrations that conjure images of life in its rawest form. 'Bonga' Jean-Baptiste's rhythms are complex and gel with Rufus Cappadocia's funky bass lines. Cappadocia's sound is also unique. His five string cello sound is rich in overtones that compound the earthiness of the group, and Yacouba's chants send shivers through your spine.
The whole album feels alive and growing. These are the sounds of life piercing a dry and crusted earth, its roots twisting and crawling, crackling and snapping. This music transcends the genres in which it finds its origins. It's not roots music, or blues, or funk, or jazz. While it contains elements of all of those styles, it is also unmistakably new and impossible to characterize in the traditional musical panacea. This pure, vibrating, swelling sound is open and honest. The Quartet is sincere and their music, all recorded live, makes you feel what they feel. This is an original and refreshing CD.© www.antimusic.com
These are the sounds of life piercing a dry and crusted earth, its roots twisting and crawling, crackling and snapping. This music transcends the genres in which it finds its origins.
19:57
336
Нет комментариев. Ваш будет первым!