Поиск

(Folk-Jazz, Cabaret, Klezmer) Vladimirska - Night Trains - 2011, FLAC (tracks+.cue), lossless

(Folk-Jazz, Cabaret, Klezmer) Vladimirska - Night Trains - 2011, FLAC (tracks+.cue), lossless
Vladimirska / Night Trains
Жанр: Folk-Jazz, Cabaret, Klezmer
Год издания: 2011
Издатель (лейбл): Gusstaff Records
Номер по каталогу: GRAM1101-2
Страна: Poland
Аудиокодек: FLAC (*.flac)
Тип рипа: tracks+.cue
Битрейт аудио: lossless
Продолжительность: 53:27
Источник (релизер): what.cd
Наличие сканов в содержимом раздачи: нет
Треклист:
01. Werewolf
02. Godzik
03. Spectacolo
04. Zakochany Kozak
05. Interlude 1
06. Walking Stick
07. Muzyka Do Filmu
08. Hala Targowa Circus Theme
09. Interlude 2
10. House On Fire
11. Night Trains
12. The Dancing Bear
13. Outro
 
Лог создания рипа
X Lossless Decoder version 20120609 (141.0)
XLD extraction logfile from 2012-08-10 19:22:47 +0100
Vladimirska / Night Trains
Used drive : MATSHITA DVD-R UJ-898 (revision HC10)
Ripper mode : XLD Secure Ripper
Disable audio cache : OK for the drive with a cache less than 1375KiB
Make use of C2 pointers : NO
Read offset correction : 102
Max retry count : 20
Gap status : Analyzed, Appended (except HTOA)
TOC of the extracted CD
Track | Start | Length | Start sector | End sector
---------------------------------------------------------
1 | 00:00:00 | 04:48:28 | 0 | 21627
2 | 04:48:28 | 03:46:43 | 21628 | 38620
3 | 08:34:71 | 03:55:05 | 38621 | 56250
4 | 12:30:01 | 06:31:50 | 56251 | 85625
5 | 19:01:51 | 00:56:36 | 85626 | 89861
6 | 19:58:12 | 07:18:19 | 89862 | 122730
7 | 27:16:31 | 06:27:18 | 122731 | 151773
8 | 33:43:49 | 04:34:74 | 151774 | 172397
9 | 38:18:48 | 00:45:28 | 172398 | 175800
10 | 39:04:01 | 05:26:29 | 175801 | 200279
11 | 44:30:30 | 04:47:26 | 200280 | 221830
12 | 49:17:56 | 03:25:60 | 221831 | 237265
13 | 52:43:41 | 00:43:13 | 237266 | 240503
AccurateRip Summary (DiscID: 001bb02d-01136f4d-9b0c860d)
Track 01 : OK (v1, confidence 1/1)
Track 02 : OK (v1, confidence 1/1)
Track 03 : OK (v1, confidence 1/1)
Track 04 : OK (v1, confidence 1/1)
Track 05 : OK (v1, confidence 1/1)
Track 06 : OK (v1, confidence 1/1)
Track 07 : OK (v1, confidence 1/1)
Track 08 : OK (v1, confidence 1/1)
Track 09 : OK (v1, confidence 1/1)
Track 10 : OK (v1, confidence 1/1)
Track 11 : OK (v1, confidence 1/1)
Track 12 : OK (v1, confidence 1/1)
Track 13 : OK (v1, confidence 1/1)
->All tracks accurately ripped.
All Tracks
Album gain : -8.22 dB
Peak : 0.995575
Statistics
Read error : 0
Jitter error (maybe fixed) : 0
Retry sector count : 0
Damaged sector count : 0
Track 01
Filename : /Users/fophillips/Music/what.cd/Rips/Vladimirska/2011 - Night Trains [FLAC]/01 Werewolf.flac
/Users/fophillips/Music/what.cd/Rips/Vladimirska/2011 - Night Trains [v0]/01 Werewolf.mp3
Pre-gap length : 00:02:00
Track gain : -8.15 dB
Peak : 0.995544
CRC32 hash (test run) : 43DC7949
CRC32 hash : 43DC7949
CRC32 hash (skip zero) : 786F55F1
AccurateRip v1 signature : AC754333
AccurateRip v2 signature : 340B1E72
->Accurately ripped (v1, confidence 1/1)
Statistics
Read error : 0
Jitter error (maybe fixed) : 0
Retry sector count : 0
Damaged sector count : 0
Track 02
Filename : /Users/fophillips/Music/what.cd/Rips/Vladimirska/2011 - Night Trains [FLAC]/02 Godzik.flac
/Users/fophillips/Music/what.cd/Rips/Vladimirska/2011 - Night Trains [v0]/02 Godzik.mp3
Pre-gap length : 00:02:00
Track gain : -8.77 dB
Peak : 0.995178
CRC32 hash (test run) : ABA922D4
CRC32 hash : ABA922D4
CRC32 hash (skip zero) : 1B916098
AccurateRip v1 signature : 334E52DE
AccurateRip v2 signature : BE00B1A7
->Accurately ripped (v1, confidence 1/1)
Statistics
Read error : 0
Jitter error (maybe fixed) : 0
Retry sector count : 0
Damaged sector count : 0
Track 03
Filename : /Users/fophillips/Music/what.cd/Rips/Vladimirska/2011 - Night Trains [FLAC]/03 Spectacolo.flac
/Users/fophillips/Music/what.cd/Rips/Vladimirska/2011 - Night Trains [v0]/03 Spectacolo.mp3
Pre-gap length : 00:02:00
Track gain : -8.95 dB
Peak : 0.995544
CRC32 hash (test run) : 1A550FEC
CRC32 hash : 1A550FEC
CRC32 hash (skip zero) : 1F099F39
AccurateRip v1 signature : 32A6EF3B
AccurateRip v2 signature : 949C9430
->Accurately ripped (v1, confidence 1/1)
Statistics
Read error : 0
Jitter error (maybe fixed) : 0
Retry sector count : 0
Damaged sector count : 0
Track 04
Filename : /Users/fophillips/Music/what.cd/Rips/Vladimirska/2011 - Night Trains [FLAC]/04 Zakochany Kozak.flac
/Users/fophillips/Music/what.cd/Rips/Vladimirska/2011 - Night Trains [v0]/04 Zakochany Kozak.mp3
Pre-gap length : 00:02:00
Track gain : -7.89 dB
Peak : 0.995544
CRC32 hash (test run) : 41412DB1
CRC32 hash : 41412DB1
CRC32 hash (skip zero) : FA700EA3
AccurateRip v1 signature : BBD291FA
AccurateRip v2 signature : 120BAD8C
->Accurately ripped (v1, confidence 1/1)
Statistics
Read error : 0
Jitter error (maybe fixed) : 0
Retry sector count : 0
Damaged sector count : 0
Track 05
Filename : /Users/fophillips/Music/what.cd/Rips/Vladimirska/2011 - Night Trains [FLAC]/05 Interlude 1.flac
/Users/fophillips/Music/what.cd/Rips/Vladimirska/2011 - Night Trains [v0]/05 Interlude 1.mp3
Pre-gap length : 00:02:00
Track gain : -3.99 dB
Peak : 0.835938
CRC32 hash (test run) : 1F30A070
CRC32 hash : 1F30A070
CRC32 hash (skip zero) : 196AB04A
AccurateRip v1 signature : 7E4F3897
AccurateRip v2 signature : B4A7210C
->Accurately ripped (v1, confidence 1/1)
Statistics
Read error : 0
Jitter error (maybe fixed) : 0
Retry sector count : 0
Damaged sector count : 0
Track 06
Filename : /Users/fophillips/Music/what.cd/Rips/Vladimirska/2011 - Night Trains [FLAC]/06 Walking Stick.flac
/Users/fophillips/Music/what.cd/Rips/Vladimirska/2011 - Night Trains [v0]/06 Walking Stick.mp3
Pre-gap length : 00:02:00
Track gain : -8.20 dB
Peak : 0.994080
CRC32 hash (test run) : 3F14391C
CRC32 hash : 3F14391C
CRC32 hash (skip zero) : E1841AA7
AccurateRip v1 signature : 59923C63
AccurateRip v2 signature : 7DEDC832
->Accurately ripped (v1, confidence 1/1)
Statistics
Read error : 0
Jitter error (maybe fixed) : 0
Retry sector count : 0
Damaged sector count : 0
Track 07
Filename : /Users/fophillips/Music/what.cd/Rips/Vladimirska/2011 - Night Trains [FLAC]/07 Muzyka Do Filmu.flac
/Users/fophillips/Music/what.cd/Rips/Vladimirska/2011 - Night Trains [v0]/07 Muzyka Do Filmu.mp3
Pre-gap length : 00:02:00
Track gain : -7.25 dB
Peak : 0.993011
CRC32 hash (test run) : 6984429B
CRC32 hash : 6984429B
CRC32 hash (skip zero) : C9A4558F
AccurateRip v1 signature : 5BA45DE8
AccurateRip v2 signature : 299911AC
->Accurately ripped (v1, confidence 1/1)
Statistics
Read error : 0
Jitter error (maybe fixed) : 0
Retry sector count : 0
Damaged sector count : 0
Track 08
Filename : /Users/fophillips/Music/what.cd/Rips/Vladimirska/2011 - Night Trains [FLAC]/08 Hala Targowa Circus Theme.flac
/Users/fophillips/Music/what.cd/Rips/Vladimirska/2011 - Night Trains [v0]/08 Hala Targowa Circus Theme.mp3
Pre-gap length : 00:02:00
Track gain : -7.87 dB
Peak : 0.995544
CRC32 hash (test run) : A24F4AAE
CRC32 hash : A24F4AAE
CRC32 hash (skip zero) : 4F24D240
AccurateRip v1 signature : DFB2CCC8
AccurateRip v2 signature : D68D19F1
->Accurately ripped (v1, confidence 1/1)
Statistics
Read error : 0
Jitter error (maybe fixed) : 0
Retry sector count : 0
Damaged sector count : 0
Track 09
Filename : /Users/fophillips/Music/what.cd/Rips/Vladimirska/2011 - Night Trains [FLAC]/09 Interlude 2.flac
/Users/fophillips/Music/what.cd/Rips/Vladimirska/2011 - Night Trains [v0]/09 Interlude 2.mp3
Pre-gap length : 00:02:00
Track gain : -0.67 dB
Peak : 0.815247
CRC32 hash (test run) : 0C3806BC
CRC32 hash : 0C3806BC
CRC32 hash (skip zero) : 09B37EE3
AccurateRip v1 signature : 52A75CCE
AccurateRip v2 signature : 7F2F1761
->Accurately ripped (v1, confidence 1/1)
Statistics
Read error : 0
Jitter error (maybe fixed) : 0
Retry sector count : 0
Damaged sector count : 0
Track 10
Filename : /Users/fophillips/Music/what.cd/Rips/Vladimirska/2011 - Night Trains [FLAC]/10 House On Fire.flac
/Users/fophillips/Music/what.cd/Rips/Vladimirska/2011 - Night Trains [v0]/10 House On Fire.mp3
Pre-gap length : 00:02:00
Track gain : -8.30 dB
Peak : 0.995544
CRC32 hash (test run) : DAFF50CA
CRC32 hash : DAFF50CA
CRC32 hash (skip zero) : BADA087D
AccurateRip v1 signature : E141873A
AccurateRip v2 signature : C39D4FF6
->Accurately ripped (v1, confidence 1/1)
Statistics
Read error : 0
Jitter error (maybe fixed) : 0
Retry sector count : 0
Damaged sector count : 0
Track 11
Filename : /Users/fophillips/Music/what.cd/Rips/Vladimirska/2011 - Night Trains [FLAC]/11 Night Trains.flac
/Users/fophillips/Music/what.cd/Rips/Vladimirska/2011 - Night Trains [v0]/11 Night Trains.mp3
Pre-gap length : 00:02:00
Track gain : -8.53 dB
Peak : 0.995544
CRC32 hash (test run) : 4BF1CBC0
CRC32 hash : 4BF1CBC0
CRC32 hash (skip zero) : 39D0B56C
AccurateRip v1 signature : DB1502EB
AccurateRip v2 signature : 6629204D
->Accurately ripped (v1, confidence 1/1)
Statistics
Read error : 0
Jitter error (maybe fixed) : 0
Retry sector count : 0
Damaged sector count : 0
Track 12
Filename : /Users/fophillips/Music/what.cd/Rips/Vladimirska/2011 - Night Trains [FLAC]/12 The Dancing Bear.flac
/Users/fophillips/Music/what.cd/Rips/Vladimirska/2011 - Night Trains [v0]/12 The Dancing Bear.mp3
Pre-gap length : 00:02:00
Track gain : -8.44 dB
Peak : 0.995575
CRC32 hash (test run) : A7682984
CRC32 hash : A7682984
CRC32 hash (skip zero) : AB5617EE
AccurateRip v1 signature : F08E0984
AccurateRip v2 signature : 1D7054DB
->Accurately ripped (v1, confidence 1/1)
Statistics
Read error : 0
Jitter error (maybe fixed) : 0
Retry sector count : 0
Damaged sector count : 0
Track 13
Filename : /Users/fophillips/Music/what.cd/Rips/Vladimirska/2011 - Night Trains [FLAC]/13 Outro.flac
/Users/fophillips/Music/what.cd/Rips/Vladimirska/2011 - Night Trains [v0]/13 Outro.mp3
Pre-gap length : 00:02:00
Track gain : -4.29 dB
Peak : 0.991821
CRC32 hash (test run) : 94E66B9B
CRC32 hash : 94E66B9B
CRC32 hash (skip zero) : A94D1D0B
AccurateRip v1 signature : 0FBE3940
AccurateRip v2 signature : 33D113F4
->Accurately ripped (v1, confidence 1/1)
Statistics
Read error : 0
Jitter error (maybe fixed) : 0
Retry sector count : 0
Damaged sector count : 0
No errors occurred
End of status report
 
Содержание индексной карты (.CUE)
TITLE "Night Trains"
PERFORMER "Vladimirska"
REM GENRE "Pop"
REM DATE "2011"
REM DISCNUMBER 1
REM TOTALDISCS 1
REM DISCID 9B0C860D
REM REPLAYGAIN_ALBUM_GAIN -8.22 dB
REM REPLAYGAIN_ALBUM_PEAK 0.995575
FILE "01 Werewolf.flac" WAVE
TRACK 01 AUDIO
TITLE "Werewolf"
REM REPLAYGAIN_TRACK_GAIN -8.15 dB
REM REPLAYGAIN_TRACK_PEAK 0.995544
INDEX 01 00:00:00
TRACK 02 AUDIO
TITLE "Godzik"
REM REPLAYGAIN_TRACK_GAIN -8.77 dB
REM REPLAYGAIN_TRACK_PEAK 0.995178
INDEX 00 04:46:28
FILE "02 Godzik.flac" WAVE
INDEX 01 00:00:00
TRACK 03 AUDIO
TITLE "Spectacolo"
REM REPLAYGAIN_TRACK_GAIN -8.95 dB
REM REPLAYGAIN_TRACK_PEAK 0.995544
INDEX 00 03:44:43
FILE "03 Spectacolo.flac" WAVE
INDEX 01 00:00:00
TRACK 04 AUDIO
TITLE "Zakochany Kozak"
REM REPLAYGAIN_TRACK_GAIN -7.89 dB
REM REPLAYGAIN_TRACK_PEAK 0.995544
INDEX 00 03:53:05
FILE "04 Zakochany Kozak.flac" WAVE
INDEX 01 00:00:00
TRACK 05 AUDIO
TITLE "Interlude 1"
REM REPLAYGAIN_TRACK_GAIN -3.99 dB
REM REPLAYGAIN_TRACK_PEAK 0.835938
INDEX 00 06:29:50
FILE "05 Interlude 1.flac" WAVE
INDEX 01 00:00:00
TRACK 06 AUDIO
TITLE "Walking Stick"
REM REPLAYGAIN_TRACK_GAIN -8.20 dB
REM REPLAYGAIN_TRACK_PEAK 0.994080
INDEX 00 00:54:36
FILE "06 Walking Stick.flac" WAVE
INDEX 01 00:00:00
TRACK 07 AUDIO
TITLE "Muzyka Do Filmu"
REM REPLAYGAIN_TRACK_GAIN -7.25 dB
REM REPLAYGAIN_TRACK_PEAK 0.993011
INDEX 00 07:16:19
FILE "07 Muzyka Do Filmu.flac" WAVE
INDEX 01 00:00:00
TRACK 08 AUDIO
TITLE "Hala Targowa Circus Theme"
REM REPLAYGAIN_TRACK_GAIN -7.87 dB
REM REPLAYGAIN_TRACK_PEAK 0.995544
INDEX 00 06:25:18
FILE "08 Hala Targowa Circus Theme.flac" WAVE
INDEX 01 00:00:00
TRACK 09 AUDIO
TITLE "Interlude 2"
REM REPLAYGAIN_TRACK_GAIN -0.67 dB
REM REPLAYGAIN_TRACK_PEAK 0.815247
INDEX 00 04:32:74
FILE "09 Interlude 2.flac" WAVE
INDEX 01 00:00:00
TRACK 10 AUDIO
TITLE "House On Fire"
REM REPLAYGAIN_TRACK_GAIN -8.30 dB
REM REPLAYGAIN_TRACK_PEAK 0.995544
INDEX 00 00:43:28
FILE "10 House On Fire.flac" WAVE
INDEX 01 00:00:00
TRACK 11 AUDIO
TITLE "Night Trains"
REM REPLAYGAIN_TRACK_GAIN -8.53 dB
REM REPLAYGAIN_TRACK_PEAK 0.995544
INDEX 00 05:24:29
FILE "11 Night Trains.flac" WAVE
INDEX 01 00:00:00
TRACK 12 AUDIO
TITLE "The Dancing Bear"
REM REPLAYGAIN_TRACK_GAIN -8.44 dB
REM REPLAYGAIN_TRACK_PEAK 0.995575
INDEX 00 04:45:26
FILE "12 The Dancing Bear.flac" WAVE
INDEX 01 00:00:00
TRACK 13 AUDIO
TITLE "Outro"
REM REPLAYGAIN_TRACK_GAIN -4.29 dB
REM REPLAYGAIN_TRACK_PEAK 0.991821
INDEX 00 03:23:60
FILE "13 Outro.flac" WAVE
INDEX 01 00:00:00
 
Об исполнителе (группе)
 
Состав
Scotia Gilroy - accordion, vocals, melodica, piano, toy piano;
Ernest Heksel - trumpet;
Igor Herzyk - acoustic & electric guitars, ukulele;
Paulina Owczarek - baritone saxophone;
Antonis Skolias - drums.
04:37
328
Нет комментариев. Ваш будет первым!