Поиск

(Folk, Chamber Jazz, Accordion) [CD] Timothee Le Net Quartet (feat. Tony Hymas) - Timothee Le Net Quartet - 2014, FLAC (tracks+.cue), lossless

(Folk, Chamber Jazz, Accordion) [CD] Timothee Le Net Quartet (feat. Tony Hymas) - Timothee Le Net Quartet - 2014, FLAC (tracks+.cue), lossless
TIMOTHÉE LE NET
QUARTET Жанр: Folk, Chamber Jazz, Accordion
Страна-производитель диска: France
Год издания: 2014
Издатель (лейбл): Self Production
Аудиокодек: FLAC (*.flac)
Тип рипа: tracks+.cue
Битрейт аудио: lossless
Продолжительность: 43:43
Источник (релизер): спасибо yojikk
Наличие сканов в содержимом раздачи: front
Треклист:
1. Quai De Versailles
2. Les Perles d'Anosy
3. Mue Imaginable
4. La Poule Rousse
5. Procession
6. Rouge Piment
7. Si Et Seulement Si
8. Famuli Tuorum
9. Rideaux Lunaires
10. Aléa I
11. Danses De Travers
12. Danses De Travers
13. Danses De Travers
14. Aléa II
15. Le Vieux Chêne
 
Лог создания рипа
Exact Audio Copy V1.0 beta 3 from 29. August 2011
EAC extraction logfile from 24. June 2014, 20:35
Timothée Le Net Quartet / Timothée Le Net Quartet
Used drive : ASUS DRW-24B3LT Adapter: 3 ID: 0
Read mode : Secure
Utilize accurate stream : Yes
Defeat audio cache : Yes
Make use of C2 pointers : No
Read offset correction : 6
Overread into Lead-In and Lead-Out : No
Fill up missing offset samples with silence : Yes
Delete leading and trailing silent blocks : No
Null samples used in CRC calculations : Yes
Used interface : Installed external ASPI interface
Gap handling : Appended to previous track
Used output format : User Defined Encoder
Selected bitrate : 1024 kBit/s
Quality : High
Add ID3 tag : No
Command line compressor : C:\Program Files\Exact Audio Copy\FLAC\FLAC.EXE
Additional command line options : -6 -V -T "ARTIST=%artist%" -T "TITLE=%title%" -T "ALBUM=%albumtitle%" -T "DATE=%year%" -T "TRACKNUMBER=%tracknr%" -T "GENRE=%genre%" -T "COMMENT=%comment%" -T "BAND=%albuminterpret%" -T "ALBUMARTIST=%albuminterpret%" -T "COMPOSER=%composer%" %haslyrics%--tag-from-file=LYRICS="%lyricsfile%"%haslyrics% -T "DISCNUMBER=%cdnumber%" -T "TOTALDISCS=%totalcds%" -T "TOTALTRACKS=%numtracks%" %hascover%--picture="%coverfile%"%hascover% %source% -o %dest%
TOC of the extracted CD
Track | Start | Length | Start sector | End sector
---------------------------------------------------------
1 | 0:00.00 | 5:27.57 | 0 | 24581
2 | 5:27.57 | 4:47.19 | 24582 | 46125
3 | 10:15.01 | 2:31.06 | 46126 | 57456
4 | 12:46.07 | 4:33.09 | 57457 | 77940
5 | 17:19.16 | 4:05.50 | 77941 | 96365
6 | 21:24.66 | 3:00.24 | 96366 | 109889
7 | 24:25.15 | 1:41.51 | 109890 | 117515
8 | 26:06.66 | 3:46.70 | 117516 | 134535
9 | 29:53.61 | 2:44.60 | 134536 | 146895
10 | 32:38.46 | 0:57.40 | 146896 | 151210
11 | 33:36.11 | 1:52.67 | 151211 | 159677
12 | 35:29.03 | 1:30.45 | 159678 | 166472
13 | 36:59.48 | 2:20.48 | 166473 | 177020
14 | 39:20.21 | 1:07.01 | 177021 | 182046
15 | 40:27.22 | 3:16.40 | 182047 | 196786
Track 1
Filename D:\Albums\_WhatCD_UPLOADS\Timothée Le Net Quartet - 2014 - Timothée Le Net Quartet [FLAC]\01. Quai de Versailles.wav
Pre-gap length 0:00:02.00
Peak level 99.3 %
Extraction speed 5.8 X
Track quality 100.0 %
Test CRC 3830B7FA
Copy CRC 3830B7FA
Track not present in AccurateRip database
Copy OK
Track 2
Filename D:\Albums\_WhatCD_UPLOADS\Timothée Le Net Quartet - 2014 - Timothée Le Net Quartet [FLAC]\02. Les perles d'Anosy.wav
Peak level 96.7 %
Extraction speed 6.4 X
Track quality 100.0 %
Test CRC 15ADBE68
Copy CRC 15ADBE68
Track not present in AccurateRip database
Copy OK
Track 3
Filename D:\Albums\_WhatCD_UPLOADS\Timothée Le Net Quartet - 2014 - Timothée Le Net Quartet [FLAC]\03. Mue imaginale.wav
Peak level 96.6 %
Extraction speed 4.8 X
Track quality 99.9 %
Test CRC 7594331A
Copy CRC 7594331A
Track not present in AccurateRip database
Copy OK
Track 4
Filename D:\Albums\_WhatCD_UPLOADS\Timothée Le Net Quartet - 2014 - Timothée Le Net Quartet [FLAC]\04. La poule rousse.wav
Peak level 100.0 %
Extraction speed 7.0 X
Track quality 100.0 %
Test CRC 390D8D0C
Copy CRC 390D8D0C
Track not present in AccurateRip database
Copy OK
Track 5
Filename D:\Albums\_WhatCD_UPLOADS\Timothée Le Net Quartet - 2014 - Timothée Le Net Quartet [FLAC]\05. Procession.wav
Peak level 96.6 %
Extraction speed 6.3 X
Track quality 99.9 %
Test CRC B576BB4D
Copy CRC B576BB4D
Track not present in AccurateRip database
Copy OK
Track 6
Filename D:\Albums\_WhatCD_UPLOADS\Timothée Le Net Quartet - 2014 - Timothée Le Net Quartet [FLAC]\06. Rouge piment.wav
Peak level 99.6 %
Extraction speed 7.4 X
Track quality 100.0 %
Test CRC BFB58D49
Copy CRC BFB58D49
Track not present in AccurateRip database
Copy OK
Track 7
Filename D:\Albums\_WhatCD_UPLOADS\Timothée Le Net Quartet - 2014 - Timothée Le Net Quartet [FLAC]\07. Si et seulement si.wav
Peak level 96.6 %
Extraction speed 6.7 X
Track quality 100.0 %
Test CRC E3D4D38F
Copy CRC E3D4D38F
Track not present in AccurateRip database
Copy OK
Track 8
Filename D:\Albums\_WhatCD_UPLOADS\Timothée Le Net Quartet - 2014 - Timothée Le Net Quartet [FLAC]\08. Famuli tuorum.wav
Peak level 97.3 %
Extraction speed 8.1 X
Track quality 100.0 %
Test CRC 6079B585
Copy CRC 6079B585
Track not present in AccurateRip database
Copy OK
Track 9
Filename D:\Albums\_WhatCD_UPLOADS\Timothée Le Net Quartet - 2014 - Timothée Le Net Quartet [FLAC]\09. Rideaux lunaires.wav
Peak level 96.7 %
Extraction speed 8.0 X
Track quality 100.0 %
Test CRC B43BC705
Copy CRC B43BC705
Track not present in AccurateRip database
Copy OK
Track 10
Filename D:\Albums\_WhatCD_UPLOADS\Timothée Le Net Quartet - 2014 - Timothée Le Net Quartet [FLAC]\10. Aléa I.wav
Peak level 29.1 %
Extraction speed 6.0 X
Track quality 100.0 %
Test CRC 6D6F7683
Copy CRC 6D6F7683
Track not present in AccurateRip database
Copy OK
Track 11
Filename D:\Albums\_WhatCD_UPLOADS\Timothée Le Net Quartet - 2014 - Timothée Le Net Quartet [FLAC]\11. Danses de travers I.wav
Peak level 88.2 %
Extraction speed 5.6 X
Track quality 99.9 %
Test CRC C21C3CAB
Copy CRC C21C3CAB
Track not present in AccurateRip database
Copy OK
Track 12
Filename D:\Albums\_WhatCD_UPLOADS\Timothée Le Net Quartet - 2014 - Timothée Le Net Quartet [FLAC]\12. Danses de travers II.wav
Peak level 89.3 %
Extraction speed 5.1 X
Track quality 99.8 %
Test CRC EEF5C84A
Copy CRC EEF5C84A
Track not present in AccurateRip database
Copy OK
Track 13
Filename D:\Albums\_WhatCD_UPLOADS\Timothée Le Net Quartet - 2014 - Timothée Le Net Quartet [FLAC]\13. Danses de travers III.wav
Peak level 89.3 %
Extraction speed 8.1 X
Track quality 100.0 %
Test CRC 48394D9A
Copy CRC 48394D9A
Track not present in AccurateRip database
Copy OK
Track 14
Filename D:\Albums\_WhatCD_UPLOADS\Timothée Le Net Quartet - 2014 - Timothée Le Net Quartet [FLAC]\14. Aléa II.wav
Peak level 37.9 %
Extraction speed 4.4 X
Track quality 99.8 %
Test CRC AFC3BB4F
Copy CRC AFC3BB4F
Track not present in AccurateRip database
Copy OK
Track 15
Filename D:\Albums\_WhatCD_UPLOADS\Timothée Le Net Quartet - 2014 - Timothée Le Net Quartet [FLAC]\15. Le vieux chêne.wav
Peak level 96.7 %
Extraction speed 7.4 X
Track quality 99.9 %
Test CRC 89706CE2
Copy CRC 89706CE2
Track not present in AccurateRip database
Copy OK
None of the tracks are present in the AccurateRip database
No errors occurred
End of status report
==== Log checksum 317232A47C07BD71AC461A79BC34A4E87F490A6F1326C468C542FA8F6D0A5A28 ====
 
Содержание индексной карты (.CUE)
REM GENRE Folk
REM DATE 2014
REM DISCID CD0A3F0F
REM COMMENT "ExactAudioCopy v1.0b3"
PERFORMER "Timothee Le Net Quartet"
TITLE "Timothée Le Net Quartet"
FILE "01. Quai de Versailles.wav" WAVE
TRACK 01 AUDIO
TITLE "Quai de Versailles"
PERFORMER "Timothée Le Net Quartet"
INDEX 01 00:00:00
FILE "02. Les perles d'Anosy.wav" WAVE
TRACK 02 AUDIO
TITLE "Les perles d'Anosy"
PERFORMER "Timothee Le Net Quartet"
INDEX 01 00:00:00
FILE "03. Mue imaginale.wav" WAVE
TRACK 03 AUDIO
TITLE "Mue imaginale"
PERFORMER "Timothee Le Net Quartet"
INDEX 01 00:00:00
FILE "04. La poule rousse.wav" WAVE
TRACK 04 AUDIO
TITLE "La poule rousse"
PERFORMER "Timothee Le Net Quartet"
INDEX 01 00:00:00
FILE "05. Procession.wav" WAVE
TRACK 05 AUDIO
TITLE "Procession"
PERFORMER "Timothee Le Net Quartet"
INDEX 01 00:00:00
FILE "06. Rouge piment.wav" WAVE
TRACK 06 AUDIO
TITLE "Rouge piment"
PERFORMER "Timothee Le Net Quartet"
INDEX 01 00:00:00
FILE "07. Si et seulement si.wav" WAVE
TRACK 07 AUDIO
TITLE "Si et seulement si"
PERFORMER "Timothee Le Net Quartet"
INDEX 01 00:00:00
FILE "08. Famuli tuorum.wav" WAVE
TRACK 08 AUDIO
TITLE "Famuli tuorum"
PERFORMER "Timothee Le Net Quartet"
INDEX 01 00:00:00
FILE "09. Rideaux lunaires.wav" WAVE
TRACK 09 AUDIO
TITLE "Rideaux lunaires"
PERFORMER "Timothee Le Net Quartet"
INDEX 01 00:00:00
FILE "10. Alea I.wav" WAVE
TRACK 10 AUDIO
TITLE "Alea I"
PERFORMER "Timothee Le Net Quartet"
INDEX 01 00:00:00
FILE "11. Danses de travers I.wav" WAVE
TRACK 11 AUDIO
TITLE "Danses de travers I"
PERFORMER "Timothee Le Net Quartet"
INDEX 01 00:00:00
FILE "12. Danses de travers II.wav" WAVE
TRACK 12 AUDIO
TITLE "Danses de travers II"
PERFORMER "Timothee Le Net Quartet"
INDEX 01 00:00:00
FILE "13. Danses de travers III.wav" WAVE
TRACK 13 AUDIO
TITLE "Danses de travers III"
PERFORMER "Timothee Le Net Quartet"
INDEX 01 00:00:00
FILE "14. Alea II.wav" WAVE
TRACK 14 AUDIO
TITLE "Alea II"
PERFORMER "Timothee Le Net Quartet"
INDEX 01 00:00:00
FILE "15. Le vieux chene.wav" WAVE
TRACK 15 AUDIO
TITLE "Le vieux chene"
PERFORMER "Timothee Le Net Quartet"
INDEX 01 00:00:00
 
Состав
Timothée Le Net - accordion
Pierre Droual - violin
Martin Chapron - bouzouki, guitar
Yann Le Bozec - double bass
guest:
Tony Hymas - piano
15:53
253
Нет комментариев. Ваш будет первым!