Поиск

(Flamenco, World, Vocal Jazz, Latin, Afro-Cuban, Casa Limón) Concha Buika (feat. Chucho Valdes, Javier Limon, Jerry Gonzalez etc.) - En Mi Piel - 2011, FLAC (tracks+.cue), lossless

(Flamenco, World, Vocal Jazz, Latin, Afro-Cuban, Casa Limón) Concha Buika (feat. Chucho Valdes, Javier Limon, Jerry Gonzalez etc.) - En Mi Piel - 2011, FLAC (tracks+.cue), lossless
Треклист:
Buika (feat. Chucho Valdés, Javier Limón, Jerry González etc.) / En Mi Piel «Песни Буйки переносят в такое место, где мы остаемся один на один
с нашей романтической историей, ошибки которой становятся очевидными.
Однако, послушав ее песни, мы продолжаем намеренно допускать те же ошибки, потому
что в страсти нет правил, нет здравого смысла, нет осторожности и нет сожаления»
Педро Альмодовар Жанр: Flamenco, World, Vocal Jazz, Latin, Afro-Cuban
Страна-производитель диска: Spain
Год издания: 2011
Издатель (лейбл): Casa Limón / Warner Music Spain
Номер по каталогу: 2564665114
Страна: Spain
Аудиокодек: FLAC (*.flac)
Тип рипа: tracks+.cue
Битрейт аудио: lossless
Продолжительность: 01:12:50
Источник (релизер): вата (благодарности oxicedrus)
Наличие сканов в содержимом раздачи: да
Треклист:
1 Por El Amor De Amar
2 Se Me Hizo Fácil
3 Mi Niña Lola
4 Nostalgias
5 No Habrá Nadie En El MUndo
6 Talk To Me
7 New Afro Spanish Generation
8 Sueño Con Ella
9 Jodida Pero Contenta
10 La Falsa Moneda
11 Como Era
12 Árboles De Agua
13 Volver
14 El Último Trago (Con Chucho Valdés)
15 Somos (Con Chucho Valdés)
16 Volverás
 
Лог создания рипа
Exact Audio Copy V1.0 beta 3 from 29. August 2011
EAC extraction logfile from 5. February 2012, 21:35
Buika / En Mi Piel
Used drive : HL-DT-STDVDRAM GH22NS50 Adapter: 0 ID: 0
Read mode : Secure
Utilize accurate stream : Yes
Defeat audio cache : Yes
Make use of C2 pointers : No
Read offset correction : 667
Overread into Lead-In and Lead-Out : No
Fill up missing offset samples with silence : Yes
Delete leading and trailing silent blocks : No
Null samples used in CRC calculations : Yes
Used interface : Installed external ASPI interface
Gap handling : Appended to previous track
Used output format : User Defined Encoder
Selected bitrate : 1024 kBit/s
Quality : High
Add ID3 tag : No
Command line compressor : C:\Program Files\Exact Audio Copy\Flac\flac.exe
Additional command line options : -8 -V -T "ARTIST=%artist%" -T "TITLE=%title%" -T "ALBUM=%albumtitle%" -T "DATE=%year%" -T "TRACKNUMBER=%tracknr%" -T "TOTALTRACKS=%numtracks%" -T "GENRE=%genre%" -T "ALBUMARTIST=%albumartist%" -T "ALBUM ARTIST=%albumartist%" -T "COMMENT=EAC Secure Mode, Test & Copy, AccurateRip, FLAC -8" %source%
TOC of the extracted CD
Track | Start | Length | Start sector | End sector
---------------------------------------------------------
1 | 0:00.00 | 2:41.21 | 0 | 12095
2 | 2:41.21 | 4:04.57 | 12096 | 30452
3 | 6:46.03 | 4:28.16 | 30453 | 50568
4 | 11:14.19 | 4:08.60 | 50569 | 69228
5 | 15:23.04 | 3:51.40 | 69229 | 86593
6 | 19:14.44 | 4:53.49 | 86594 | 108617
7 | 24:08.18 | 5:58.16 | 108618 | 135483
8 | 30:06.34 | 5:40.27 | 135484 | 161010
9 | 35:46.61 | 5:45.40 | 161011 | 186925
10 | 41:32.26 | 3:32.25 | 186926 | 202850
11 | 45:04.51 | 4:31.50 | 202851 | 223225
12 | 49:36.26 | 4:32.69 | 223226 | 243694
13 | 54:09.20 | 4:54.27 | 243695 | 265771
14 | 59:03.47 | 2:47.42 | 265772 | 278338
15 | 61:51.14 | 4:10.03 | 278339 | 297091
16 | 66:01.17 | 6:49.06 | 297092 | 327772
Track 1
Filename C:\Users\user\Documents\Buika - En mi piel (2011) [FLAC]\01 - Por el Amor de Amar.wav
Pre-gap length 0:00:02.00
Peak level 98.7 %
Extraction speed 1.0 X
Track quality 100.0 %
Test CRC 131BA1A3
Copy CRC 131BA1A3
Accurately ripped (confidence 1) [EB84541D] (AR v2)
Copy OK
Track 2
Filename C:\Users\user\Documents\Buika - En mi piel (2011) [FLAC]\02 - Se me Hizo Facil.wav
Peak level 100.0 %
Extraction speed 1.2 X
Track quality 100.0 %
Test CRC 5649332F
Copy CRC 5649332F
Accurately ripped (confidence 1) [35816340] (AR v2)
Copy OK
Track 3
Filename C:\Users\user\Documents\Buika - En mi piel (2011) [FLAC]\03 - Mi Nina Lola.wav
Pre-gap length 0:00:02.00
Peak level 95.8 %
Extraction speed 1.2 X
Track quality 99.9 %
Test CRC 0587AE68
Copy CRC 0587AE68
Accurately ripped (confidence 1) [901562E7] (AR v2)
Copy OK
Track 4
Filename C:\Users\user\Documents\Buika - En mi piel (2011) [FLAC]\04 - Nostalgias.wav
Pre-gap length 0:00:02.00
Peak level 96.4 %
Extraction speed 1.4 X
Track quality 100.0 %
Test CRC 1DEFE47B
Copy CRC 1DEFE47B
Accurately ripped (confidence 1) [8B37E4A4] (AR v2)
Copy OK
Track 5
Filename C:\Users\user\Documents\Buika - En mi piel (2011) [FLAC]\05 - No Habra Nadie en el Mundo.wav
Pre-gap length 0:00:02.06
Peak level 98.1 %
Extraction speed 1.5 X
Track quality 100.0 %
Test CRC 3C71A436
Copy CRC 3C71A436
Accurately ripped (confidence 1) [F178EBEE] (AR v2)
Copy OK
Track 6
Filename C:\Users\user\Documents\Buika - En mi piel (2011) [FLAC]\06 - Talk To Me.wav
Pre-gap length 0:00:02.00
Peak level 98.9 %
Extraction speed 1.6 X
Track quality 100.0 %
Test CRC E82FE4DA
Copy CRC E82FE4DA
Accurately ripped (confidence 1) [6F22EA44] (AR v2)
Copy OK
Track 7
Filename C:\Users\user\Documents\Buika - En mi piel (2011) [FLAC]\07 - New Afro Spanish Generation.wav
Pre-gap length 0:00:02.09
Peak level 98.9 %
Extraction speed 1.6 X
Track quality 99.9 %
Test CRC 87266FDD
Copy CRC 87266FDD
Accurately ripped (confidence 1) [5F18C62D] (AR v2)
Copy OK
Track 8
Filename C:\Users\user\Documents\Buika - En mi piel (2011) [FLAC]\08 - Sueno con Ella.wav
Pre-gap length 0:00:02.02
Peak level 100.0 %
Extraction speed 1.9 X
Track quality 100.0 %
Test CRC B1BFA756
Copy CRC B1BFA756
Accurately ripped (confidence 1) [3D75621B] (AR v2)
Copy OK
Track 9
Filename C:\Users\user\Documents\Buika - En mi piel (2011) [FLAC]\09 - Jodida Pero Contenta.wav
Pre-gap length 0:00:02.03
Peak level 100.0 %
Extraction speed 2.0 X
Track quality 100.0 %
Test CRC 204F20D0
Copy CRC 204F20D0
Accurately ripped (confidence 1) [512BE804] (AR v2)
Copy OK
Track 10
Filename C:\Users\user\Documents\Buika - En mi piel (2011) [FLAC]\10 - La Falsa Moneda.wav
Pre-gap length 0:00:02.07
Peak level 100.0 %
Extraction speed 2.0 X
Track quality 100.0 %
Test CRC 312A3989
Copy CRC 312A3989
Accurately ripped (confidence 1) [38B6115B] (AR v2)
Copy OK
Track 11
Filename C:\Users\user\Documents\Buika - En mi piel (2011) [FLAC]\11 - Como Era.wav
Pre-gap length 0:00:01.66
Peak level 100.0 %
Extraction speed 2.1 X
Track quality 100.0 %
Test CRC A668ACEC
Copy CRC A668ACEC
Accurately ripped (confidence 1) [20FBA7DA] (AR v2)
Copy OK
Track 12
Filename C:\Users\user\Documents\Buika - En mi piel (2011) [FLAC]\12 - Arboles de Agua.wav
Pre-gap length 0:00:02.08
Peak level 100.0 %
Extraction speed 2.2 X
Track quality 100.0 %
Test CRC 2B6AC022
Copy CRC 2B6AC022
Accurately ripped (confidence 1) [C46A5AB5] (AR v2)
Copy OK
Track 13
Filename C:\Users\user\Documents\Buika - En mi piel (2011) [FLAC]\13 - Volver - Directo.wav
Pre-gap length 0:00:01.64
Peak level 100.0 %
Extraction speed 2.2 X
Track quality 100.0 %
Test CRC AB1DE587
Copy CRC AB1DE587
Accurately ripped (confidence 1) [4BDA185A] (AR v2)
Copy OK
Track 14
Filename C:\Users\user\Documents\Buika - En mi piel (2011) [FLAC]\14 - El Ultimo Trago.wav
Pre-gap length 0:00:02.00
Peak level 100.0 %
Extraction speed 2.1 X
Track quality 100.0 %
Test CRC AF57DFF8
Copy CRC AF57DFF8
Accurately ripped (confidence 1) [4A2D52F5] (AR v2)
Copy OK
Track 15
Filename C:\Users\user\Documents\Buika - En mi piel (2011) [FLAC]\15 - Somos.wav
Pre-gap length 0:00:01.68
Peak level 100.0 %
Extraction speed 2.4 X
Track quality 100.0 %
Test CRC 8AEE1800
Copy CRC 8AEE1800
Accurately ripped (confidence 1) [9E5FA3C0] (AR v2)
Copy OK
Track 16
Filename C:\Users\user\Documents\Buika - En mi piel (2011) [FLAC]\16 - Volveras.wav
Pre-gap length 0:00:02.07
Peak level 100.0 %
Extraction speed 2.6 X
Track quality 100.0 %
Test CRC ABA51B85
Copy CRC ABA51B85
Accurately ripped (confidence 1) [7E0D5019] (AR v2)
Copy OK
All tracks accurately ripped
No errors occurred
End of status report
==== Log checksum 185BB16FA89F76BDBE4BAD7A37313AB4672DF508A1944AB09A5B81421BBFD36A ====
 
Содержание индексной карты (.CUE)
REM GENRE Folk
REM DATE 2011
REM DISCID ED111210
REM COMMENT "ExactAudioCopy v1.0b3"
PERFORMER "Buika"
TITLE "En Mi Piel"
FILE "01 - Por el Amor de Amar.wav" WAVE
TRACK 01 AUDIO
TITLE "Por el Amor de Amar"
PERFORMER "Buika"
INDEX 01 00:00:00
FILE "02 - Se me Hizo Facil.wav" WAVE
TRACK 02 AUDIO
TITLE "Se me Hizo Facil"
PERFORMER "Buika"
INDEX 01 00:00:00
TRACK 03 AUDIO
TITLE "Mi Nina Lola"
PERFORMER "Buika"
INDEX 00 04:02:57
FILE "03 - Mi Nina Lola.wav" WAVE
INDEX 01 00:00:00
TRACK 04 AUDIO
TITLE "Nostalgias"
PERFORMER "Buika"
INDEX 00 04:26:16
FILE "04 - Nostalgias.wav" WAVE
INDEX 01 00:00:00
TRACK 05 AUDIO
TITLE "No Habra Nadie en el Mundo"
PERFORMER "Buika"
INDEX 00 04:06:54
FILE "05 - No Habra Nadie en el Mundo.wav" WAVE
INDEX 01 00:00:00
TRACK 06 AUDIO
TITLE "Talk To Me"
PERFORMER "Buika"
INDEX 00 03:49:40
FILE "06 - Talk To Me.wav" WAVE
INDEX 01 00:00:00
TRACK 07 AUDIO
TITLE "New Afro Spanish Generation"
PERFORMER "Buika"
INDEX 00 04:51:40
FILE "07 - New Afro Spanish Generation.wav" WAVE
INDEX 01 00:00:00
TRACK 08 AUDIO
TITLE "Sueno con Ella"
PERFORMER "Buika"
INDEX 00 05:56:14
FILE "08 - Sueno con Ella.wav" WAVE
INDEX 01 00:00:00
TRACK 09 AUDIO
TITLE "Jodida Pero Contenta"
PERFORMER "Buika"
INDEX 00 05:38:24
FILE "09 - Jodida Pero Contenta.wav" WAVE
INDEX 01 00:00:00
TRACK 10 AUDIO
TITLE "La Falsa Moneda"
PERFORMER "Buika"
INDEX 00 05:43:33
FILE "10 - La Falsa Moneda.wav" WAVE
INDEX 01 00:00:00
TRACK 11 AUDIO
TITLE "Como Era"
PERFORMER "Buika"
INDEX 00 03:30:34
FILE "11 - Como Era.wav" WAVE
INDEX 01 00:00:00
TRACK 12 AUDIO
TITLE "Arboles de Agua"
PERFORMER "Buika"
INDEX 00 04:29:42
FILE "12 - Arboles de Agua.wav" WAVE
INDEX 01 00:00:00
TRACK 13 AUDIO
TITLE "Volver - Directo"
PERFORMER "Buika"
INDEX 00 04:31:05
FILE "13 - Volver - Directo.wav" WAVE
INDEX 01 00:00:00
TRACK 14 AUDIO
TITLE "El Ultimo Trago"
PERFORMER "Buika"
INDEX 00 04:52:27
FILE "14 - El Ultimo Trago.wav" WAVE
INDEX 01 00:00:00
TRACK 15 AUDIO
TITLE "Somos"
PERFORMER "Buika"
INDEX 00 02:45:49
FILE "15 - Somos.wav" WAVE
INDEX 01 00:00:00
TRACK 16 AUDIO
TITLE "Volveras"
PERFORMER "Buika"
INDEX 00 04:07:71
FILE "16 - Volveras.wav" WAVE
INDEX 01 00:00:00
Доп. информация: http://buikamusic.com/
 
Об исполнителе
Concha Buika (born 1972 in Palma de Mallorca) is a Spanish singer. Her album Niña de Fuego was nominated for the 2008 Latin Grammy Award for Album of the Year.
 
Об альбоме
The first official compilation by the acclaimed flamenco fusion/jazz/soul vocalist Concha Buika from Palma de Mallorca, En Mi Piel: The Best of Buika collects highlights from the four excellent albums she recorded between 2005 and 2009. This CD set concentrates on her projects with producer Javier Limón, and while it does not feature , it includes many tracks not available on her original albums. Her two superb contributions to Pedro Almodóvar's 2011 film La Piel Que Habito ("Por el Amor de Amar" and "Se Me Hizo Fácil"); and two previously unreleased tracks, "Sueño con Ella" and "Como Era."
Конча Буйка – чернокожая испанская дива, дочь эмигрантов из Экваториальной Гвинеи, одна из самых необычных, ярких и самобытных персон на современной музыкальной сцене. Своей неповторимой манерой исполнения и низким, обжигающим тембром голоса эта королева фламенко и джаза способна обворожить любого слушателя. «Черная жемчужина» испанской музыки родом из Пальма-де-Мальорка. Она неоднократно была номинирована на латинскую премию Грэмми. Буйка выпустила немало совместных хитов с Чучо Вальдесом, Хавьером Лимоном, Маризой, Ясмин Леви, Анушкой Шанкар, Силом, Нелли Фуртадо и др., вызвавших бурю положительных откликов со стороны музыкальных критиков и ее многомиллионной армии преданных поклонников.
11:24
418
Нет комментариев. Ваш будет первым!