Поиск

(Flamenco, Smoth Jazz, Latin Jazz) Francesco Grant "Energipsy" - Alma Gitana - 2010, FLAC (image+.cue), lossless

(Flamenco, Smoth Jazz, Latin Jazz) Francesco Grant "Energipsy" - Alma Gitana - 2010, FLAC (image+.cue), lossless
Треклист:
Francesco Grant "Energipsy" - Alma Gitana
Жанр: Flamenco, Smoth Jazz, Latin Jazz
Год выпуска диска: 2010
Производитель диска: Italia
Аудио кодек: FLAC
Тип рипа: image+.cue
Битрейт аудио: lossless
Продолжительность: 41:20
Треклист:
01. Amanecer (4:30)
02. Africa (4:04)
03. Azul (3:38)
04. Caminando (2:34)
05. Entre Dos Aguas (4:26)
06. Alma Gitana (3:07)
07. Dos Estrellas (2:29)
08. Rio (3:23)
09. Sara Kali (3:05)
10. Gipsy Dream (4:20)
11. Recuerdos De La Alhambra (2:58)
12. Manolo (2:42)
 
***EAC***
Exact Audio Copy V0.99 prebeta 4 from 23. January 2008
Отчёт EAC об извлечении, выполненном 28. августа 2010, 12:09
Francesco Grant / Alma Gitana
Дисковод: ATAPI iHAS424 A Adapter: 0 ID: 0
Режим чтения : Достоверность
Использование точного потока : Да
Отключение кэша аудио : Да
Использование указателей C2 : Нет
Коррекция смещения при чтении : 6
Способность читать области Lead-in и Lead-out : Нет
Заполнение пропущенных сэмплов тишиной : Да
Удаление блоков с тишиной в начале и конце : Нет
При вычислениях CRC использовались нулевые сэмплы : Да
Интерфейс : Установленный внешний ASPI-интерфейс
Выходной формат : Пользовательский кодировщик
Выбранный битрейт : 1024 kBit/s
Качество : Высокий
Добавление ID3-тэга : Нет
Утилита сжатия : C:\Program Files\Exact Audio Copy\FLAC\FLAC.EXE
Дополнительные параметры : -5 -V -T "ARTIST=%a" -T "TITLE=%t" -T "ALBUM=%g" -T "DATE=%y" -T "TRACKNUMBER=%n" -T "GENRE=%m" -T "COMMENT=%e" %s -o %d
TOC извлечённого CD
Трек | Старт | Длительность | Начальный сектор | Конечный сектор
---------------------------------------------------------------------
1 | 0:00.00 | 4:30.39 | 0 | 20288
2 | 4:30.39 | 4:04.46 | 20289 | 38634
3 | 8:35.10 | 3:38.43 | 38635 | 55027
4 | 12:13.53 | 2:34.16 | 55028 | 66593
5 | 14:47.69 | 4:26.36 | 66594 | 86579
6 | 19:14.30 | 3:07.40 | 86580 | 100644
7 | 22:21.70 | 2:29.24 | 100645 | 111843
8 | 24:51.19 | 3:23.21 | 111844 | 127089
9 | 28:14.40 | 3:05.31 | 127090 | 140995
10 | 31:19.71 | 4:20.01 | 140996 | 160496
11 | 35:39.72 | 2:58.32 | 160497 | 173878
12 | 38:38.29 | 2:42.14 | 173879 | 186042
Характеристики диапазона извлечения и сообщения об ошибках
Выбранный диапазон
Имя файла I:\BitComet\Francesco Grant(flac)\2010-Alma Gitana\Francesco Grant - Alma Gitana.wav
Пиковый уровень 98.8 %
Качество диапазона 100.0 %
CRC копии 7E689E4A
Копирование... OK
Ошибок не произошло
AccurateRip: сводка
Трек 1 нет в базе данных
Трек 2 нет в базе данных
Трек 3 нет в базе данных
Трек 4 нет в базе данных
Трек 5 нет в базе данных
Трек 6 нет в базе данных
Трек 7 нет в базе данных
Трек 8 нет в базе данных
Трек 9 нет в базе данных
Трек 10 нет в базе данных
Трек 11 нет в базе данных
Трек 12 нет в базе данных
Ни одного трека нет в базе AccurateRip
Конец отчёта
Доп. информация: Francesco Grant - Родился в Италии (Шотландец), начал играть на гитаре с 9 лет.
Путешествовал по Франции и Испании, жил вместе с цыганами.
Его идеал Manitas de Plata!!!
В 1996 году организовал группу Energipsy!!!
Alma Gitana - первый сольный проект!!!
Любители хорошей музыки это для Вас!!!
Рип сделан собственноручно c оригинального СД !!!
Сканы в папке.
PS. Очень хотелось бы услышать Ваше мнение которое я очень ценю!!!
Релиз от ©СЁРФ-Маrаtones aka izia1956
16:35
240
Нет комментариев. Ваш будет первым!