Поиск

(Flamenco, Jazz, Fusion) [CD] Chicuelo & Marco Mezquida - Conexion - 2017, FLAC (tracks+.cue), lossless

(Flamenco, Jazz, Fusion) [CD] Chicuelo & Marco Mezquida - Conexion - 2017, FLAC (tracks+.cue), lossless

Chicuelo & Marco Mezquida - Conexion - 2017
Жанр: Flamenco, Jazz, Fusion
Носитель: CD
Страна-производитель диска (релиза): Spain
Год издания: 2017
Издатель (лейбл): Taller de Músics
Номер по каталогу: TMDM 077
Страна исполнителя (группы): Spain
Дата / место записи: at Medusa Estudio, Barcelona
Аудио кодек: FLAC (*.flac)
Тип рипа: (tracks + .cue)
Битрейт аудио: lossless
Наличие сканов в содержимом раздачи: full scans, jpeg, 300 dpi
Продолжительность: 53:12
Источник (релизер): jlgt (redacted)
Трэклист:
01. Chicuelina 6:36
02. Al sol 6:09
03. A solas 5:37
04. Velas 8:49
05. Engaño 9:23
06. Lenta, andante, trepidante 7:46
07. Conexión 8:52
All songs composed and arranged by Chicuelo & Marco Mezquida
 
Лог создания рипа (5. May 2017)
Exact Audio Copy V1.0 beta 3 from 29. August 2011
EAC extraction logfile from 5. May 2017, 22:16
Chicuelo - Marco Mezquida / Conexion
Used drive : ASUS DRW-24F1ST a Adapter: 0 ID: 0
Read mode : Secure
Utilize accurate stream : Yes
Defeat audio cache : Yes
Make use of C2 pointers : No
Read offset correction : 6
Overread into Lead-In and Lead-Out : No
Fill up missing offset samples with silence : Yes
Delete leading and trailing silent blocks : No
Null samples used in CRC calculations : Yes
Used interface : Native Win32 interface for Win NT & 2000
Gap handling : Appended to previous track
Used output format : User Defined Encoder
Selected bitrate : 128 kBit/s
Quality : High
Add ID3 tag : No
Command line compressor : C:\Program Files (x86)\Exact Audio Copy\FLAC\FLAC.EXE
Additional command line options : -8 -V -T "ARTIST=%artist%" -T "TITLE=%title%" -T "ALBUM=%albumtitle%" -T "DATE=%year%" -T "TRACKNUMBER=%tracknr%" -T "TOTALTRACKS=%numtracks%" -T "GENRE=%genre%" -T "ALBUMARTIST=%albumartist%" -T "ALBUM ARTIST=%albumartist%" -T "COMMENT=EAC Secure Mode, Test & Copy, AccurateRip, FLAC -8" %source%
TOC of the extracted CD
Track | Start | Length | Start sector | End sector
---------------------------------------------------------
1 | 0:00.00 | 6:36.17 | 0 | 29716
2 | 6:36.17 | 6:09.54 | 29717 | 57445
3 | 12:45.71 | 5:37.12 | 57446 | 82732
4 | 18:23.08 | 8:49.24 | 82733 | 122431
5 | 27:12.32 | 9:23.28 | 122432 | 164684
6 | 36:35.60 | 7:46.64 | 164685 | 199698
7 | 44:22.49 | 8:52.04 | 199699 | 239602
Track 1
Filename K:\EAC\01 - Chicuelina.wav
Pre-gap length 0:00:02.00
Peak level 100.0 %
Extraction speed 5.0 X
Track quality 100.0 %
Test CRC DE8C9012
Copy CRC DE8C9012
Track not present in AccurateRip database
Copy OK
Track 2
Filename K:\EAC\02 - Al sol.wav
Peak level 100.0 %
Extraction speed 5.7 X
Track quality 100.0 %
Test CRC 2D1C1EC1
Copy CRC 2D1C1EC1
Track not present in AccurateRip database
Copy OK
Track 3
Filename K:\EAC\03 - A solas.wav
Peak level 100.0 %
Extraction speed 6.2 X
Track quality 100.0 %
Test CRC FD548795
Copy CRC FD548795
Track not present in AccurateRip database
Copy OK
Track 4
Filename K:\EAC\04 - Velas.wav
Peak level 100.0 %
Extraction speed 7.1 X
Track quality 100.0 %
Test CRC 5CD42A69
Copy CRC 5CD42A69
Track not present in AccurateRip database
Copy OK
Track 5
Filename K:\EAC\05 - Engano.wav
Peak level 100.0 %
Extraction speed 7.3 X
Track quality 99.9 %
Test CRC 3A167D90
Copy CRC 3A167D90
Track not present in AccurateRip database
Copy OK
Track 6
Filename K:\EAC\06 - Lenta, andante, trepidante.wav
Peak level 100.0 %
Extraction speed 8.2 X
Track quality 100.0 %
Test CRC 592D9764
Copy CRC 592D9764
Track not present in AccurateRip database
Copy OK
Track 7
Filename K:\EAC\07 - Conexion.wav
Peak level 100.0 %
Extraction speed 8.9 X
Track quality 100.0 %
Test CRC C8D186C4
Copy CRC C8D186C4
Track not present in AccurateRip database
Copy OK
None of the tracks are present in the AccurateRip database
No errors occurred
End of status report
==== Log checksum BABAA47E7D89AAFB1378B7299D9EB2974695FEB877E924AFB8E841AE151E914B ====
 
Содержание индексной карты (.CUE):
REM GENRE Flamenco-Jazz
REM DATE 2017
REM DISCID 640C7A07
REM COMMENT "ExactAudioCopy v1.0b3"
PERFORMER "Chicuelo - Marco Mezquida"
TITLE "Conexion"
FILE "01 - Chicuelina.wav" WAVE
TRACK 01 AUDIO
TITLE "Chicuelina"
PERFORMER "Chicuelo - Marco Mezquida"
INDEX 01 00:00:00
FILE "02 - Al sol.wav" WAVE
TRACK 02 AUDIO
TITLE "Al sol"
PERFORMER "Chicuelo - Marco Mezquida"
INDEX 01 00:00:00
FILE "03 - A solas.wav" WAVE
TRACK 03 AUDIO
TITLE "A solas"
PERFORMER "Chicuelo - Marco Mezquida"
INDEX 01 00:00:00
FILE "04 - Velas.wav" WAVE
TRACK 04 AUDIO
TITLE "Velas"
PERFORMER "Chicuelo - Marco Mezquida"
INDEX 01 00:00:00
FILE "05 - Engano.wav" WAVE
TRACK 05 AUDIO
TITLE "Engano"
PERFORMER "Chicuelo - Marco Mezquida"
INDEX 01 00:00:00
FILE "06 - Lenta, andante, trepidante.wav" WAVE
TRACK 06 AUDIO
TITLE "Lenta, andante, trepidante"
PERFORMER "Chicuelo - Marco Mezquida"
INDEX 01 00:00:00
FILE "07 - Conexion.wav" WAVE
TRACK 07 AUDIO
TITLE "Conexion"
PERFORMER "Chicuelo - Marco Mezquida"
INDEX 01 00:00:00
 
Лог проверки качества
-----------------------
DON'T MODIFY THIS FILE
-----------------------
PERFORMER: auCDtect Task Manager, ver. 1.6.0 RC1 build 1.6.0.1
Copyright (c) 2008-2010 y-soft. All rights reserved
http://y-soft.org
ANALYZER: auCDtect: CD records authenticity detector, version 0.8.2
Copyright (c) 2004 Oleg Berngardt. All rights reserved.
Copyright (c) 2004 Alexander Djourik. All rights reserved.
FILE: 07 - Conexion.flac
Size: 53784369 Hash: 4B2053B878BD0098B940031FBDFF0B7F Accuracy: -m0
Conclusion: CDDA 100%
Signature: 3558B431D3BAF0795DE3B564AF6A8E050A75DA4E
FILE: 06 - Lenta, andante, trepidante.flac
Size: 46010562 Hash: 94CCE285071F4DB52EE67C9B8961B1E8 Accuracy: -m0
Conclusion: CDDA 99%
Signature: DECFB3BF5E4562308493993A33ED7A34FB1AEAE6
FILE: 05 - Engano.flac
Size: 57980043 Hash: 24D9A3FA8F636D112E460BF19948FD87 Accuracy: -m0
Conclusion: CDDA 100%
Signature: 65EB6F8D6FAB55839E7951EEF04A3FCD48D6D687
FILE: 04 - Velas.flac
Size: 49167311 Hash: 1851FA293D7BE6A7E70C5119BCC6428F Accuracy: -m0
Conclusion: CDDA 100%
Signature: 008B47A3F0C7DE4B7F19240C0564601089D04353
FILE: 03 - A solas.flac
Size: 24062183 Hash: A272598AD3370F57717341F6274663E1 Accuracy: -m0
Conclusion: CDDA 100%
Signature: 82260CF79D3362B18F4C7EC92EE4ABA32E3C2DD6
FILE: 02 - Al sol.flac
Size: 38639316 Hash: 12C4443DE2FC6B15A5B583103D03AA0A Accuracy: -m0
Conclusion: CDDA 99%
Signature: 0C4AAF5A897963D470B12F52B8C8C2360A2820B0
FILE: 01 - Chicuelina.flac
Size: 38095995 Hash: A6401530FE996D58E9E3EBBFCA83ECA5 Accuracy: -m0
Conclusion: CDDA 100%
Signature: 9C73B260436DD26B6D550AA8B59F1074BD14F362
 
Динамический диапазон
foobar2000 1.3.10 / Замер динамического диапазона (DR) 1.1.1
Дата отчёта: 2017-05-15 20:27:53
--------------------------------------------------------------------------------
Анализ: Chicuelo - Marco Mezquida / Conexion
--------------------------------------------------------------------------------
DR Пики RMS Продолжительность трека
--------------------------------------------------------------------------------
DR7 0.00 дБ -10.55 дБ 6:36 01-Chicuelina
DR6 0.00 дБ -9.38 дБ 6:10 02-Al sol
DR12 0.00 дБ -15.40 дБ 5:37 03-A solas
DR8 0.00 дБ -12.50 дБ 8:49 04-Velas
DR7 0.00 дБ -9.25 дБ 9:23 05-Engano
DR7 0.00 дБ -10.47 дБ 7:47 06-Lenta, andante, trepidante
DR6 0.00 дБ -9.43 дБ 8:52 07-Conexion
--------------------------------------------------------------------------------
Количество треков: 7
Реальные значения DR: DR8
Частота: 44100 Гц
Каналов: 2
Разрядность: 16
Битрейт: 809 кбит/с
Кодек: FLAC
================================================================================


 
Back
 
Состав
Marco Mezquida · piano
Juan Gómez ‘Chicuelo’ · guitarra flamenca
Paco de Mode · percussió


00:41
311
Нет комментариев. Ваш будет первым!