Вы используете незарегистрированную версию компонента "Вкладки"!

Поиск

(Field Recording, Experimental, Free Improvisation) Homeogryllus Japonicus Orchestra 2004 - Homeogryllus Japonicus Orchestra 2004 (with Keiji Haino, Mamoru Fujieda) - 2005, FLAC (tracks+.cue), lossless

Треклист:
Homeogryllus Japonicus Orchestra 2004
Жанр: Field Recording, Experimental, Free Improvisation
Год выпуска диска: 2005
Производитель диска: Great YEar Soundings GYESCD-001
Аудио кодек: FLAC
Тип рипа: tracks+.cue
Битрейт аудио: lossless
Источник: what.cd (museum64)
Продолжительность: 70:02
Треклист:
01 Prelude 8:43
HJO with audience
02 Untitled 29:04
Performer [Soloist] - Mamoru Fujieda
Technician [Manipulation Supported By] - Koichiro Sugiyama
03 Untitled 32:15
Performer [Soloist] - Keiji Haino
Conductor - Great Year Soundings
Liner Notes - Alan Cummings , Lee Ranaldo , Naohiro Ukawa
Recorded By - Hiromits Shoji
Recorded at the Hara Museum of Contemporary Art on August 28, 2004.
The recording features the amplified and processed sound of 600 suzumushi (homeogryllus japaonicus) bell crickets.
 
скрытый текст
"Homeogryllus Japonicus, the nomemclature of Suzumushi or bell cricket, has been affectionately know in Japan since Heian period. This little summer insect appeared on the several scenes of japanese old novels such as "Tales of Genji" and "Manyo-shu" due to its subtle and beautiful singing. Now, summer 2004 in Tokyo, the performance/installation entitled Homeogryllus Japonicus Orchestra (conducted by Great YEar Sounding) catabolizes this Suzumushi's singing through amplifying and mixing.
All the performance, Mamoru Fujieda, known for prantron, the installation using botanic pulse, and Keiji Haino, a modern-day shaman, will also make an appearance. Who knows - the evening may finish without any sound as in 4'33'' by John Cage. It may play delicate love songs as in old Heian verses. Relax and expose yourself to the world of Suzumushi's microcosmos on a beautiful summer evening."
 
CUE
REM DISCID 21106A03
REM COMMENT "ExactAudioCopy v0.99pb4"
PERFORMER "Homeogryllus Japonicus Orchestra 2004"
TITLE "Homeogryllus Japonicus Orchestra 2004"
FILE "01 - Great YEar Soundings, Mamoru Fujieda, Keiji Haino - Prelude.wav" WAVE
TRACK 01 AUDIO
TITLE "Prelude"
PERFORMER "Homeogryllus Japonicus Orchestra 2004"
FLAGS DCP
INDEX 01 00:00:00
TRACK 02 AUDIO
TITLE "Untitled"
PERFORMER "Homeogryllus Japonicus Orchestra 2004"
FLAGS DCP
INDEX 00 08:41:15
FILE "02 - Great YEar Soundings, Mamoru Fujieda, Keiji Haino - Mamoru Fujieda.wav" WAVE
INDEX 01 00:00:00
TRACK 03 AUDIO
TITLE "Untitled"
PERFORMER "Homeogryllus Japonicus Orchestra 2004"
FLAGS DCP
INDEX 00 28:53:45
FILE "03 - Great YEar Soundings, Mamoru Fujieda, Keiji Haino - Keiji Haino.wav" WAVE
INDEX 01 00:00:00
 
audiochecker
AUDIOCHECKER v2.0 beta (build 457) - by Dester - opdester@freemail.hu
~~~~~~~~~~~~~~~~~~~~~~~~~~~~~~~~~~
-=== НЕ РЕДАКТИРУЙТЕ ЭТОТ ФАЙЛ! ===-
Путь: ...\2004-Homeogryllus Japonicus Orchestra 2004 [2005, Great YEar Soundings GYESCD-001]
1 -=- 01 - Great YEar Soundings, Mamoru Fujieda, Keiji Haino - Prelude.flac -=- CDDA (100%)
2 -=- 02 - Great YEar Soundings, Mamoru Fujieda, Keiji Haino - Mamoru Fujieda.flac -=- CDDA (100%)
3 -=- 03 - Great YEar Soundings, Mamoru Fujieda, Keiji Haino - Keiji Haino.flac -=- CDDA (100%)
Сводка 100,00% CDDA
35565540
Any questions -> support@pro-jazz.com. По всем вопросам пишите -> support@pro-jazz.com
03:01
142
Нет комментариев. Ваш будет первым!