Вы используете незарегистрированную версию компонента "Вкладки"!

Поиск

(Experimental Rock, Avant-Garde Jazz, Modern Free) Marco Benevento - Between the Needles and Nightfall - 2010, FLAC (tracks+.cue) lossless

Треклист:
Marco Benevento / Between the Needles and Nightfall
Жанр: Experimental Rock, Avant-Garde Jazz, Modern Free
Год издания диска: May 11, 2010
Издатель (лейбл): Royal Potato Family Records
Страна: New York, USA
Аудио кодек: FLAC (*.flac)
Тип рипа: tracks+.cue
Битрейт аудио: lossless
Продолжительность: 1:04:07.493
Источник (релизер): liquidsteel30 (x264-bb.com)
Наличие сканов в содержимом раздачи: нет
Треклист:
01. Greenpoint (6:17)
02. Between the Needles (4:59)
03. Two of You (5:31)
04. Numbers (6:28)
05. It Came from You (5:13)
06. Ila Frost (7:00)
07. RISD (7:37)
08. You Know I'm No Good (3:40)
09. Music Is Still Secret (4:28)
10. Wolf Trap (5:50)
11. Snow Lake (7:03)
 
Лог создания рипа
Exact Audio Copy V0.99 prebeta 3 from 28. July 2007
EAC extraction logfile from 11. May 2010, 13:23
Marco Benevento / Between the Needles and Nightfall
Used drive : HL-DT-STBDDVDRW GGC-H20L Adapter: 1 ID: 0
Read mode : Secure
Utilize accurate stream : Yes
Defeat audio cache : Yes
Make use of C2 pointers : No
Read offset correction : 667
Overread into Lead-In and Lead-Out : No
Fill up missing offset samples with silence : Yes
Delete leading and trailing silent blocks : No
Null samples used in CRC calculations : Yes
Used interface : Native Win32 interface for Win NT & 2000
Gap handling : Appended to previous track
Used output format : User Defined Encoder
Selected bitrate : 128 kBit/s
Quality : High
Add ID3 tag : No
Command line compressor : C:\Program Files (x86)\Exact Audio Copy\Flac\flac.exe
Additional command line options : -V -8 -T "artist=%a" -T "title=%t" -T "album=%g" -T "date=%y" -T "tracknumber=%n" -T "genre=%m" %s
TOC of the extracted CD
Track | Start | Length | Start sector | End sector
---------------------------------------------------------
1 | 0:00.00 | 6:17.10 | 0 | 28284
2 | 6:17.10 | 4:59.03 | 28285 | 50712
3 | 11:16.13 | 5:31.29 | 50713 | 75566
4 | 16:47.42 | 6:27.74 | 75567 | 104665
5 | 23:15.41 | 5:13.32 | 104666 | 128172
6 | 28:28.73 | 6:59.42 | 128173 | 159639
7 | 35:28.40 | 7:37.19 | 159640 | 193933
8 | 43:05.59 | 3:39.71 | 193934 | 210429
9 | 46:45.55 | 4:28.25 | 210430 | 230554
10 | 51:14.05 | 5:50.13 | 230555 | 256817
11 | 57:04.18 | 7:03.19 | 256818 | 288561
Track 1
Filename F:\FLAC\Marco Benevento 2010 Between the Needles and Nightfall\Marco Benevento 01 Greenpoint.wav
Pre-gap length 0:00:02.00
Peak level 98.8 %
Track quality 100.0 %
Test CRC 8F220B07
Copy CRC 8F220B07
Track not present in AccurateRip database
Copy OK
Track 2
Filename F:\FLAC\Marco Benevento 2010 Between the Needles and Nightfall\Marco Benevento 02 Between the Needles.wav
Pre-gap length 0:00:01.30
Peak level 98.8 %
Track quality 100.0 %
Test CRC B035190E
Copy CRC B035190E
Track not present in AccurateRip database
Copy OK
Track 3
Filename F:\FLAC\Marco Benevento 2010 Between the Needles and Nightfall\Marco Benevento 03 Two of You.wav
Pre-gap length 0:00:00.66
Peak level 98.8 %
Track quality 99.9 %
Test CRC 2465BA7B
Copy CRC 2465BA7B
Track not present in AccurateRip database
Copy OK
Track 4
Filename F:\FLAC\Marco Benevento 2010 Between the Needles and Nightfall\Marco Benevento 04 Numbers.wav
Pre-gap length 0:00:00.39
Peak level 98.8 %
Track quality 100.0 %
Test CRC 44D777D5
Copy CRC 44D777D5
Track not present in AccurateRip database
Copy OK
Track 5
Filename F:\FLAC\Marco Benevento 2010 Between the Needles and Nightfall\Marco Benevento 05 It Came from You.wav
Pre-gap length 0:00:01.01
Peak level 100.0 %
Track quality 100.0 %
Test CRC 110B3675
Copy CRC 110B3675
Track not present in AccurateRip database
Copy OK
Track 6
Filename F:\FLAC\Marco Benevento 2010 Between the Needles and Nightfall\Marco Benevento 06 Ila Frost.wav
Pre-gap length 0:00:00.53
Peak level 98.8 %
Track quality 100.0 %
Test CRC 3837EDF1
Copy CRC 3837EDF1
Track not present in AccurateRip database
Copy OK
Track 7
Filename F:\FLAC\Marco Benevento 2010 Between the Needles and Nightfall\Marco Benevento 07 RISD.wav
Peak level 99.9 %
Track quality 99.9 %
Test CRC 0597DC45
Copy CRC 0597DC45
Track not present in AccurateRip database
Copy OK
Track 8
Filename F:\FLAC\Marco Benevento 2010 Between the Needles and Nightfall\Marco Benevento 08 You Know I'm No Good.wav
Pre-gap length 0:00:00.67
Peak level 98.8 %
Track quality 100.0 %
Test CRC 42EAC5ED
Copy CRC 42EAC5ED
Track not present in AccurateRip database
Copy OK
Track 9
Filename F:\FLAC\Marco Benevento 2010 Between the Needles and Nightfall\Marco Benevento 09 Music Is Still Secret.wav
Pre-gap length 0:00:02.40
Peak level 88.2 %
Track quality 100.0 %
Test CRC 3DB13878
Copy CRC 3DB13878
Track not present in AccurateRip database
Copy OK
Track 10
Filename F:\FLAC\Marco Benevento 2010 Between the Needles and Nightfall\Marco Benevento 10 Wolf Trap.wav
Pre-gap length 0:00:01.16
Peak level 98.8 %
Track quality 100.0 %
Test CRC EC811DC7
Copy CRC EC811DC7
Track not present in AccurateRip database
Copy OK
Track 11
Filename F:\FLAC\Marco Benevento 2010 Between the Needles and Nightfall\Marco Benevento 11 Snow Lake.wav
Pre-gap length 0:00:01.63
Peak level 100.0 %
Track quality 100.0 %
Test CRC D8A79FDA
Copy CRC D8A79FDA
Track not present in AccurateRip database
Copy OK
None of the tracks are present in the AccurateRip database
No errors occurred
End of status report
 
Содержание индексной карты (.CUE)
REM GENRE Jazz
REM DATE 2010
REM DISCID 9D0F070B
REM COMMENT "ExactAudioCopy v0.99pb3"
PERFORMER "Marco Benevento"
TITLE "Between the Needles and Nightfall"
FILE "Marco Benevento 01 Greenpoint.wav" WAVE
TRACK 01 AUDIO
TITLE "Greenpoint"
PERFORMER "Marco Benevento"
INDEX 01 00:00:00
TRACK 02 AUDIO
TITLE "Between the Needles"
PERFORMER "Marco Benevento"
INDEX 00 06:15:55
FILE "Marco Benevento 02 Between the Needles.wav" WAVE
INDEX 01 00:00:00
TRACK 03 AUDIO
TITLE "Two of You"
PERFORMER "Marco Benevento"
INDEX 00 04:58:12
FILE "Marco Benevento 03 Two of You.wav" WAVE
INDEX 01 00:00:00
TRACK 04 AUDIO
TITLE "Numbers"
PERFORMER "Marco Benevento"
INDEX 00 05:30:65
FILE "Marco Benevento 04 Numbers.wav" WAVE
INDEX 01 00:00:00
TRACK 05 AUDIO
TITLE "It Came from You"
PERFORMER "Marco Benevento"
INDEX 00 06:26:73
FILE "Marco Benevento 05 It Came from You.wav" WAVE
INDEX 01 00:00:00
TRACK 06 AUDIO
TITLE "Ila Frost"
PERFORMER "Marco Benevento"
INDEX 00 05:12:54
FILE "Marco Benevento 06 Ila Frost.wav" WAVE
INDEX 01 00:00:00
FILE "Marco Benevento 07 RISD.wav" WAVE
TRACK 07 AUDIO
TITLE "RISD"
PERFORMER "Marco Benevento"
INDEX 01 00:00:00
TRACK 08 AUDIO
TITLE "You Know I'm No Good"
PERFORMER "Marco Benevento"
INDEX 00 07:36:27
FILE "Marco Benevento 08 You Know I'm No Good.wav" WAVE
INDEX 01 00:00:00
TRACK 09 AUDIO
TITLE "Music Is Still Secret"
PERFORMER "Marco Benevento"
INDEX 00 03:37:31
FILE "Marco Benevento 09 Music Is Still Secret.wav" WAVE
INDEX 01 00:00:00
TRACK 10 AUDIO
TITLE "Wolf Trap"
PERFORMER "Marco Benevento"
INDEX 00 04:27:09
FILE "Marco Benevento 10 Wolf Trap.wav" WAVE
INDEX 01 00:00:00
TRACK 11 AUDIO
TITLE "Snow Lake"
PERFORMER "Marco Benevento"
INDEX 00 05:48:25
FILE "Marco Benevento 11 Snow Lake.wav" WAVE
INDEX 01 00:00:00
 
Лог проверки качества
-----------------------
DON'T MODIFY THIS FILE
-----------------------
PERFORMER: auCDtect Task Manager, ver. 1.5.1RC4 build 1.5.1.5
Copyright (c) 2008-2010 y-soft. All rights reserved
http://y-soft.org
ANALYZER: auCDtect: CD records authenticity detector, version 0.8.2
Copyright (c) 2004 Oleg Berngardt. All rights reserved.
Copyright (c) 2004 Alexander Djourik. All rights reserved.
FILE: Marco Benevento 11 Snow Lake.flac
Size: 46248808 Hash: 3447361E7B2DBFD1B988A5B828A02638 Accuracy: -m0
Conclusion: CDDA 100%
Signature: 017BCA96E9649F3BB66B9124D6A90D8C654C8CEE
FILE: Marco Benevento 10 Wolf Trap.flac
Size: 43198038 Hash: 114B362D33964A1E95A361AC69C3D6AE Accuracy: -m0
Conclusion: CDDA 100%
Signature: EDEA5808CAED58726932778FCD0FC4B65E54B383
FILE: Marco Benevento 09 Music Is Still Secret.flac
Size: 26936792 Hash: 54A0F31105619DC60FF82E605F52F964 Accuracy: -m0
Conclusion: CDDA 100%
Signature: F7B35F01C04E6481B0D4B72B194E6A556772610F
FILE: Marco Benevento 08 You Know I'm No Good.flac
Size: 25850568 Hash: B6DE029D5766C5255924B6BF0F95C7E0 Accuracy: -m0
Conclusion: CDDA 100%
Signature: E264AE3AD12EA2738331BFEA8C466343B2A7A20B
FILE: Marco Benevento 07 RISD.flac
Size: 53192493 Hash: D2D3ED669748BCD5AB3E509059F33337 Accuracy: -m0
Conclusion: CDDA 100%
Signature: E020F53183DCE0D294935C1F82EA00D59A5E2928
FILE: Marco Benevento 06 Ila Frost.flac
Size: 47001261 Hash: 35357B4AC6131A4E91F587EE47F93AF8 Accuracy: -m0
Conclusion: CDDA 100%
Signature: 22D861A022648AE23FDC1011CADF572EE21EAF37
FILE: Marco Benevento 05 It Came from You.flac
Size: 37858686 Hash: A0E32DA794D9F8A3E936160E05141031 Accuracy: -m0
Conclusion: CDDA 100%
Signature: 4CE4D822003C789E39786EE5E6EE98F70A2BDE12
FILE: Marco Benevento 04 Numbers.flac
Size: 47536931 Hash: CDFA9D5FB40602901D8AD3C5AD3E4BA2 Accuracy: -m0
Conclusion: CDDA 100%
Signature: 81040FA5CC7EB23D52046C746A2F07BFB3BCD4E4
FILE: Marco Benevento 03 Two of You.flac
Size: 39122945 Hash: 2B41C1B1A53FE7AB1EC8A5A0AF9D05F0 Accuracy: -m0
Conclusion: CDDA 100%
Signature: 12BCB14938FB2044A5E0AFEFAB3715D0DE35EB70
FILE: Marco Benevento 02 Between the Needles.flac
Size: 30684186 Hash: 97275361B1CBEA19946B6CDF275F355F Accuracy: -m0
Conclusion: CDDA 100%
Signature: 102FFB734A8503C6F647DA93020260A6B73B1652
FILE: Marco Benevento 01 Greenpoint.flac
Size: 46399061 Hash: 0AC084B7B7115421E304649EFE250309 Accuracy: -m0
Conclusion: CDDA 100%
Signature: 96A23FED32FF1EE5DE9290D695D016445D5ACB40
Доп. информация: allmusic
По всем вопросам пишите личное сообщение пользователю M0p94ok.
10:42
160
Нет комментариев. Ваш будет первым!