Вы используете незарегистрированную версию компонента "Вкладки"!

Поиск

(experimental noise rock, free jazz, structured improvisation) Original Silence - The Second Original Silence (Mats Gustafsson) - 2008, FLAC (tracks+.cue), lossless

(experimental noise rock, free jazz, structured improvisation) Original Silence - The Second Original Silence (Mats Gustafsson) - 2008, FLAC (tracks+.cue), lossless
Треклист:
Original Silence - The Second Original Silence (Mats Gustafsson)
Жанр: experimental noise rock, free jazz, structured improvisation
Год выпуска диска: 2008
Производитель диска: Smalltown Superjazz, Норвегия
Аудио кодек: FLAC
Тип рипа: tracks+.cue
Битрейт аудио: lossless
Продолжительность: 56:54
Трэклист:
1. Argument Left Hanging - Rubber Cement 7:34
2. A Sweeping Parade of Optimism - Blood Streak 22:23
3. High Trees and a Few Birds - The Doll's Reflection 18:31
4 .Crepescular Refractions - Mystery Eye 8:24
All music by Original Silence

Доп. информация: Этот альбом (так же как и The First Original Silence) записан во время тура по Италии 2005 года (запись сделана на концерте 28 сентября в Риме). Фантастический состав (см.ниже)!.. Цитата: "Голый ноль заботы о слушателе, ему на протяжении всего альбома не дают даже дыхание первести. Ни разу Мойте мозги порошком :)"
Musicians:
Mats Gustafsson (The Thing, Gush, The AALY Trio, Peter Brotzmann Tentet) - baritone and slide saxophone, live electronics
Thurston Moore (Sonic Youth) - electric guitar
Jim O'Rourke (Sonic Youth) - electronics
Terrie Ex (The Ex) - electric guitar
Massimo Pupillo (Zu) - electric bass
Paal Nilssen-Love (The Thing, Atomic) - drums & percussion
 
Отчёт EAC
Exact Audio Copy V0.99 prebeta 5 from 4. May 2009
EAC extraction logfile from 14. July 2009, 0:14
Original Silence / The Second Original Silence
Used drive : ASUS DRW-20B1ST Adapter: 3 ID: 0
Read mode : Secure
Utilize accurate stream : Yes
Defeat audio cache : Yes
Make use of C2 pointers : No
Read offset correction : 6
Overread into Lead-In and Lead-Out : No
Fill up missing offset samples with silence : Yes
Delete leading and trailing silent blocks : No
Null samples used in CRC calculations : Yes
Used interface : Native Win32 interface for Win NT & 2000
Gap handling : Appended to previous track
Used output format : User Defined Encoder
Selected bitrate : 768 kBit/s
Quality : High
Add ID3 tag : No
Command line compressor : C:\Program Files\Exact Audio Copy\FLAC\FLAC.EXE
Additional command line options : -8 -V -T "ARTIST=%a" -T "TITLE=%t" -T "ALBUM=%g" -T "DATE=%y" -T "TRACKNUMBER=%n" -T "GENRE=%m" -T "COMMENT=EAC FLAC -8" %s
TOC of the extracted CD
Track | Start | Length | Start sector | End sector
---------------------------------------------------------
1 | 0:00.00 | 7:34.53 | 0 | 34102
2 | 7:34.53 | 22:23.61 | 34103 | 134888
3 | 29:58.39 | 18:31.37 | 134889 | 218250
4 | 48:30.01 | 8:24.07 | 218251 | 256057
Track 1
Filename I:\Torrent\Раздачи\Original Silence - The Second Original Silence (2008) [FLAC]\01. Original Silence , Argument Left Hanging - Rubber Cement.wav
Pre-gap length 0:00:02.00
Peak level 98.5 %
Track quality 100.0 %
Test CRC 4515307D
Copy CRC 4515307D
Accurately ripped (confidence 3) [21F7FFCC]
Copy OK
Track 2
Filename I:\Torrent\Раздачи\Original Silence - The Second Original Silence (2008) [FLAC]\02. Original Silence , A Sweeping Parade of Optimism - Blood Streak.wav
Peak level 99.4 %
Track quality 100.0 %
Test CRC BD9057F5
Copy CRC BD9057F5
Accurately ripped (confidence 2) [E934A2A3]
Copy OK
Track 3
Filename I:\Torrent\Раздачи\Original Silence - The Second Original Silence (2008) [FLAC]\03. Original Silence , High Trees & a Few Birds - the Doll's Reflection.wav
Peak level 98.6 %
Track quality 100.0 %
Test CRC 8D9E8852
Copy CRC 8D9E8852
Accurately ripped (confidence 2) [A48161EC]
Copy OK
Track 4
Filename I:\Torrent\Раздачи\Original Silence - The Second Original Silence (2008) [FLAC]\04. Original Silence , Crepescular Refractions - Mystery Eye.wav
Peak level 98.6 %
Track quality 99.9 %
Test CRC 2F5AF642
Copy CRC 2F5AF642
Accurately ripped (confidence 2) [1202C9CE]
Copy OK
All tracks accurately ripped
No errors occurred
End of status report
Вынужденный повтор релиза. Сделан новый рип с правильными настройками EAC. Формат FLAC потрековый. Добавлены сканы. На развороте буклета - автограф, собственноручно взятый у Матса Густафссона.
Any questions -> support@pro-jazz.com. По всем вопросам пишите -> support@pro-jazz.com
12:43
139
Нет комментариев. Ваш будет первым!