Поиск

(Experimental, Free Jazz, Minimal) [CD] Masahiko Togashi & Isao Suzuki - A Day of the Sun - 1979 (2012 Japan Edition), FLAC (tracks+.cue), lossless

(Experimental, Free Jazz, Minimal) [CD] Masahiko Togashi & Isao Suzuki - A Day of the Sun - 1979 (2012 Japan Edition), FLAC (tracks+.cue), lossless
Треклист:
Masahiko Togashi & Isao Suzuki - A Day of the Sun
Жанр: Experimental, Free Jazz, Minimal
Носитель: CD
Страна-производитель диска (релиза): Япония
Год издания: 2012
Издатель (лейбл): King Records
Номер по каталогу: KICJ 2296
Аудиокодек: FLAC (*.flac)
Тип рипа: tracks+.cue
Битрейт аудио: lossless
Продолжительность: 37:37
Источник (релизер): dadaawcd
Наличие сканов в содержимом раздачи: нет
Треклист:
01. A Day of the Sun (8:00)
02. Birth of Yellow Eggs (4:30)
03. Lonely Blue (7:14)
04. Creatures in the Deep Blue Sea (7:53)
05. Silvery Flash (4:30)
06. Awakening of the Fresh Green (5:30)
Состав:
Masahiko Togashi - drums, percussion, synthesizer, solina, etc.
Isao Suzuki - bass, piccolo bass, cello, piano, solina, percussion
Recorded at King Records Studio #2, Tokyo on February 1-3, 1979.
 
Лог создания рипа
Exact Audio Copy V1.3 from 2. September 2016
EAC extraction logfile from 7. November 2017, 18:15
富樫雅彦&鈴木勲 / A DAY OF THE SUN
Used drive : PIONEER BD-RW BDR-209 Adapter: 1 ID: 0
Read mode : Secure
Utilize accurate stream : Yes
Defeat audio cache : Yes
Make use of C2 pointers : No
Read offset correction : 667
Overread into Lead-In and Lead-Out : No
Fill up missing offset samples with silence : Yes
Delete leading and trailing silent blocks : No
Null samples used in CRC calculations : Yes
Used interface : Native Win32 interface for Win NT & 2000
Gap handling : Appended to previous track
Used output format : User Defined Encoder
Selected bitrate : 1024 kBit/s
Quality : High
Add ID3 tag : No
Command line compressor : Z:\Program Files\EAC\Flac\flac.exe
Additional command line options : -8 -e -p -V -T "ARTIST=%artist%" -T "TITLE=%title%" -T "ALBUM=%albumtitle%" -T "DATE=%year%" -T "TRACKNUMBER=%tracknr%" -T "GENRE=%genre%" -T "PERFORMER=%albuminterpret%" -T "COMPOSER=%composer%" %haslyrics%--tag-from-file=LYRICS="%lyricsfile%"%haslyrics% -T "ALBUMARTIST=%albumartist%" -T "DISCNUMBER=%cdnumber%" -T "TOTALDISCS=%totalcds%" -T "TOTALTRACKS=%numtracks%" -T "COMMENT=%comment%" %source% -o %dest%
TOC of the extracted CD
Track | Start | Length | Start sector | End sector
---------------------------------------------------------
1 | 0:00.00 | 8:00.27 | 0 | 36026
2 | 8:00.27 | 4:29.72 | 36027 | 56273
3 | 12:30.24 | 7:13.38 | 56274 | 88786
4 | 19:43.62 | 7:53.03 | 88787 | 124264
5 | 27:36.65 | 4:30.28 | 124265 | 144542
6 | 32:07.18 | 5:29.55 | 144543 | 169272
Track 1
Filename L:\ジャズ・フュージョン\1979 富樫雅彦&鈴木勲 - A Day of the Sun\01 A Day Of The Sun.wav
Pre-gap length 0:00:02.00
Peak level 99.3 %
Extraction speed 4.7 X
Track quality 99.9 %
Test CRC 43F3D80D
Copy CRC 43F3D80D
Accurately ripped (confidence 2) [3BE8A3B3] (AR v2)
Copy OK
Track 2
Filename L:\ジャズ・フュージョン\1979 富樫雅彦&鈴木勲 - A Day of the Sun\02 Birth Of Yellow Eggs.wav
Pre-gap length 0:00:03.00
Peak level 99.1 %
Extraction speed 5.5 X
Track quality 100.0 %
Test CRC 8AD4C752
Copy CRC 8AD4C752
Accurately ripped (confidence 2) [F5640A42] (AR v2)
Copy OK
Track 3
Filename L:\ジャズ・フュージョン\1979 富樫雅彦&鈴木勲 - A Day of the Sun\03 Lonely Blue.wav
Pre-gap length 0:00:03.00
Peak level 99.3 %
Extraction speed 6.3 X
Track quality 100.0 %
Test CRC 089652E9
Copy CRC 089652E9
Accurately ripped (confidence 2) [C1E3D43F] (AR v2)
Copy OK
Track 4
Filename L:\ジャズ・フュージョン\1979 富樫雅彦&鈴木勲 - A Day of the Sun\04 Creatures In The Deep Blue Sea.wav
Pre-gap length 0:00:04.00
Peak level 99.2 %
Extraction speed 6.9 X
Track quality 100.0 %
Test CRC D693F126
Copy CRC D693F126
Accurately ripped (confidence 2) [8BB4C081] (AR v2)
Copy OK
Track 5
Filename L:\ジャズ・フュージョン\1979 富樫雅彦&鈴木勲 - A Day of the Sun\05 Silvery Flash.wav
Pre-gap length 0:00:03.00
Peak level 99.3 %
Extraction speed 7.1 X
Track quality 100.0 %
Test CRC 5F6C0784
Copy CRC 5F6C0784
Accurately ripped (confidence 2) [D029EDA6] (AR v2)
Copy OK
Track 6
Filename L:\ジャズ・フュージョン\1979 富樫雅彦&鈴木勲 - A Day of the Sun\06 Awakening Of The Fresh Green.wav
Pre-gap length 0:00:03.00
Peak level 99.2 %
Extraction speed 7.5 X
Track quality 100.0 %
Test CRC 562D800C
Copy CRC 562D800C
Accurately ripped (confidence 1) [24A40C22] (AR v2)
Copy OK
All tracks accurately ripped
No errors occurred
End of status report
---- CUETools DB Plugin V2.1.6
[CTDB TOCID: Uk7H.TFda0t9tAb.b9DfLGiF4Qk-] found
Submit result: Uk7H.TFda0t9tAb.b9DfLGiF4Qk- has been confirmed
Track | CTDB Status
1 | (3/3) Accurately ripped
2 | (3/3) Accurately ripped
3 | (3/3) Accurately ripped
4 | (3/3) Accurately ripped
5 | (3/3) Accurately ripped
6 | (3/3) Accurately ripped
==== Log checksum 044F1362C8B28B261F73586BF9F84EA0C632A73EF20A52EE3BF42C6DC152E037 ====
 
Содержание индексной карты (.CUE)
REM GENRE Jazz
REM DATE 1979
REM DISCID 5608D006
REM COMMENT "ExactAudioCopy v1.3"
PERFORMER "Masahiko Togashi & Isao Suzuki"
TITLE "A Day of the Sun"
FILE "01 - A Day of the Sun.wav" WAVE
TRACK 01 AUDIO
TITLE "A Day of the Sun"
PERFORMER "Masahiko Togashi & Isao Suzuki"
ISRC JPKI07971381
INDEX 01 00:00:00
TRACK 02 AUDIO
TITLE "Birth of Yellow Eggs"
PERFORMER "Masahiko Togashi & Isao Suzuki"
ISRC JPKI07971383
INDEX 00 07:57:27
FILE "02 - Birth of Yellow Eggs.wav" WAVE
INDEX 01 00:00:00
TRACK 03 AUDIO
TITLE "Lonely Blue"
PERFORMER "Masahiko Togashi & Isao Suzuki"
ISRC JPKI07971386
INDEX 00 04:26:72
FILE "03 - Lonely Blue.wav" WAVE
INDEX 01 00:00:00
TRACK 04 AUDIO
TITLE "Creatures in the Deep Blue Sea"
PERFORMER "Masahiko Togashi & Isao Suzuki"
ISRC JPKI07971382
INDEX 00 07:09:38
FILE "04 - Creatures in the Deep Blue Sea.wav" WAVE
INDEX 01 00:00:00
TRACK 05 AUDIO
TITLE "Silvery Flash"
PERFORMER "Masahiko Togashi & Isao Suzuki"
ISRC JPKI07971385
INDEX 00 07:50:03
FILE "05 - Silvery Flash.wav" WAVE
INDEX 01 00:00:00
TRACK 06 AUDIO
TITLE "Awakening of the Fresh Green"
PERFORMER "Masahiko Togashi & Isao Suzuki"
ISRC JPKI07971384
INDEX 00 04:27:28
FILE "06 - Awakening of the Fresh Green.wav" WAVE
INDEX 01 00:00:00
 
Отчет CUETools
[CUETools log; Date: 20.05.2018 2:09:21; Version: 2.1.5]
[CTDB TOCID: Uk7H.TFda0t9tAb.b9DfLGiF4Qk-] found.
Track | CTDB Status
1 | (5/5) Accurately ripped
2 | (5/5) Accurately ripped
3 | (5/5) Accurately ripped
4 | (5/5) Accurately ripped
5 | (5/5) Accurately ripped
6 | (5/5) Accurately ripped
[AccurateRip ID: 000972a1-0031e38f-5608d006] found.
Track [ CRC | V2 ] Status
01 [2d8bafe1|3be8a3b3] (0+3/3) Accurately ripped
02 [03b7aa07|f5640a42] (0+3/3) Accurately ripped
03 [8aab4784|c1e3d43f] (0+3/3) Accurately ripped
04 [bd781e9d|8bb4c081] (0+3/3) Accurately ripped
05 [20e7dd6d|d029eda6] (0+3/3) Accurately ripped
06 [48c3ab45|24a40c22] (0+2/2) Accurately ripped
Track Peak [ CRC32 ] [W/O NULL] [ LOG ]
-- 99,3 [C35DB991] [749FE923]
01 99,3 [43F3D80D] [370C5CD6] CRC32
02 99,1 [8AD4C752] [3C810D93] CRC32
03 99,3 [089652E9] [0B1A751F] CRC32
04 99,2 [D693F126] [8A1FDE00] CRC32
05 99,3 [5F6C0784] [3CD54E4C] CRC32
06 99,2 [562D800C] [25B3C5E4] CRC32
 
Об альбоме (сборнике)
"A Day Of The Sun" is two Japanese jazz greats duo's album. Percussionist Masahiko Togashi (besides of pianist Masahiko Satoh) are key figure of Japanese free jazz,played with virtually everyone of important Japanese advanced jazz musician and recorded lot of albums,some of them (especially recorded in late 60s - early 70s)are part of Japanese jazz "golden fund". Acoustic bassist Isao Suzuki is even more legendary figure - in Japan he is usually titled "Godfather of Jazz".
Born in Tokyo in 1933,he started his jazz career in 1953 playing bass with Louis Armstrong when the later to Japan that year.I have read in Isao's interview that he was in Armstrong concert and next day found out that Armstrong band is searching for bassist. Isao asked his mother to buy him a bass (he never played the instrument before) and went to rehearsal. According to Isao, bandleader hired him and showed how to play bass - that's how he started.Later he played for two or three years in US Navy base band and than joined Jun Kiyomizu band - his first Japanese band ever.He played around Japan (mostly in local cabarets) till late 60s when "Ginpary"(or "Silver Paris" - psychedelic jam sessions on very early Japanese free jazz stage) fashion pushed mainstream jazz musicians aside.Isao still participated in some gigs and even was one-time member of quartet with Sadao Watanabe,Togashi and Kikuchi(that was one of "Ginpary" session where Isao met Masahiko Togashi for the first time).In 1969 he played with Art Blakey who invited him to America where Isao stayed for two years (mostly traveling around the country and Canada in old Caddilac with Art Blakey and playing gigs mostly in black clubs).Art Blakey's band of the time included George Cables,Woody Shaw and Ramon Morris.Isao played lot of jams with Jim Hall, Kenny Burrell,Elvin Jones,Duke Pearson and Lee Morgan among others. He spent a lot of time in Rudy Van Gelder recording studio as well where Rudy tough him many secrets of good recording sound.Isao even was a bassist in Ella Fitzgerald band, but when one day in airport on their way to Canada Art Blakey got basted on cocaine,Isao same day just took the flight back to Japan.On return he made a lot introducing his experience in development of jazz in Japan.His first albums for Three Blind Mices (cult audiophile label,kind Japanese ECM but with very physical,deep and warm sound)built recordings sound and mix quality standard for decades to come.In 1980 he released "Self-Portrait" - first ever one-man recording using multilayer techniques in Japanese jazz (Isao played 22 different instruments on this album).
Main Isao's personality importance is still that that he's one among few extremely respectable Japanese jazz artists having hard-bop background.Other his generation known jazzmen come mostly from big bands (formed under US bases orchestras influence),late 60s pushed ahead new noisy and angry generation which stepped right to radical avant-garde.
With all series of strong hard-bop albums,Isao stayed innovative for decades though. His second important influence was fusion,but he released albums containing Latin jazz or even modern electronic remixes. During his long career Isao played with percussionist Masahiko Tagashi quite regularly, on Masahiko's or his own albums. "A Day of The Sun" is duo's collaboration,significant for both artists. Similarly like fusion popularity fast decrease in mid-late 70s on Western jazz scenes left lot of jazz musicians on the thin ice (and sometimes without job),in Japan that time is a time when jazz lost its importance as major part of modern musical culture. One of popular trend where many previous avant-garde and fusion artists switched to became etno-influenced improvisational (often meditative) music. "A Day Of The Sun" (percussionist and bassist duo recording,both uses some synth and other instruments though) is one good example. Fortunately differently from many of similar releases music here doesn't become endless hypnotizing noodling and successfully avoids similarities with upcoming new age. Two musicians are both too big personalities and too great masters to fade to grey zone - even if there are very free form compositions presented,them all have lot of blood and bones (deep physical bass, multilayered and complex percussion,all the time changing rhythms and grooves); probably good comparison is some ECM early proto-ambient recordings, where sound still wasn't all that liquid and super-polished.
Togashi will continue developing same formula on his later works,Suzuki will return to his more usual mainstream jazz, but "A Day Of The Sun" will stay as great evidence of two giant collaboration and excellent example of non-boring improvisational music.
-- snobb
Приватный:
Нет (DHT включён)
Размер:
179.88 Мб (188,615,292 байт) » файлов: 14
Участники:
0 раздают, 1 качают (1 участников всего)
Внешние участники:
2 раздают, 1 качают (3 участников всего) [ Обновить ]
Скорость:
176.60 Кб/c 0/c
For power users only: no seeders - write to support@pro-jazz.com. Для power user: нет сидеров - пишите на support@pro-jazz.com.
05:16
136
Нет комментариев. Ваш будет первым!