Поиск

(Experimental, Classical, Bossa Nova) Morelenbaum² & Ryuichi Sakamoto - A Day in New York - 2003, FLAC (tracks+.cue), lossless

Треклист:
Morelenbaum² & Ryuichi Sakamoto - A Day in New York
Жанр: Experimental, Classical, Bossa Nova
Год выпуска диска: 2003
Производитель диска: US
Аудио кодек: FLAC
Тип рипа: tracks+.cue
Битрейт аудио: lossless
Продолжительность: 45:15
Трэклист:
1. Desafinado
2. Bim Bom
3. Insensatez
4. Coracao Vagabundo
5. Falando de Amor
6. Chora Coracao
7. Sabia
8. Tango (Versao em Portugues)
9. Chega de Saudade
10. Samba Do Aviao
11. Fotografia
Доп. информация:
 
Album info
This album was recorded to capture the live performances experienced while touring
and playing the music of Antonia Carlos Jobim. The tour had a huge effect on all of
them and as they toured their understanding and love of the music intensified to the
extent that they felt they needed to record it for release. This is a studio recorded
album of the live set. (eil.com)
 
AMG review
Review by Chris Nickson
A Day in New York, recorded at the end of a U.S. tour the group made in 2002 in support
of the Casa release is, simply, Morelenbaum Squared's live set performed -- live --
in a New York studio. The emphasis, of course, is on songs by Antonio Carlos Jobim, although
Caetano Veloso, João Gilberto, and even Ryuichi Sakamoto and Paula Morelenbaum get a look in.
The music is exquisite, gently understated, and shimmering like a heat mirage. Morelenbaum
is a more than capable singer, and often a delight here (as on "Fotografia"), while Sakamoto
is the real revelation of the album. He blends in so perfectly it's hard to believe he's not
Brazilian; he's deft in rhythmic support, and never pushes too much on his solos. Cellist
Jacques Morelenbaum is the veteran, but he keeps a sense of discovery in his playing,
and the inclusion of the bowed instrument offers an almost chamber music-feel to this music,
bringing another dimension to the sound. The three are the focal points, but kudos too,
to the guitarist and drummer, who keep in the background, but offer vital support.
It's remarkable just how familiar many of these songs are; not merely the obvious "Desafinado"
and "Chega De Saudade," but "Samba De Avião" and "Fotografia." In a way, it's like chancing up
on an old friend after many years, and finding a new richness. A joy to the ear.
- All Music Guide.
 
EAC log
Exact Audio Copy V0.99 prebeta 4 from 23. January 2008
EAC extraction logfile from 30. May 2009, 13:20
Ryuichi Sakamoto, Jaques Morelenbaum, Paula Morelenbaum / A Day In New York
Used drive : HL-DT-STDVDRAM GSA-T20N Adapter: 1 ID: 0
Read mode : Secure
Utilize accurate stream : Yes
Defeat audio cache : Yes
Make use of C2 pointers : No
Read offset correction : 667
Overread into Lead-In and Lead-Out : No
Fill up missing offset samples with silence : Yes
Delete leading and trailing silent blocks : No
Null samples used in CRC calculations : Yes
Used interface : Native Win32 interface for Win NT & 2000
Gap handling : Appended to previous track
Used output format : User Defined Encoder
Selected bitrate : 1024 kBit/s
Quality : High
Add ID3 tag : No
Command line compressor : C:\Program Files\FLAC\flac.exe
Additional command line options : -8 -V -T "ARTIST=%a" -T "TITLE=%t" -T "ALBUM=%g" -T "DATE=%y" -T "TRACKNUMBER=%n" -T "GENRE=%m" -T "COMMENT=EAC FLAC -8" %s
TOC of the extracted CD
Track | Start | Length | Start sector | End sector
---------------------------------------------------------
1 | 0:00.00 | 4:03.05 | 0 | 18229
2 | 4:03.05 | 2:13.07 | 18230 | 28211
3 | 6:16.12 | 4:21.20 | 28212 | 47806
4 | 10:37.32 | 4:11.65 | 47807 | 66696
5 | 14:49.22 | 3:50.00 | 66697 | 83946
6 | 18:39.22 | 3:30.25 | 83947 | 99721
7 | 22:09.47 | 4:56.30 | 99722 | 121951
8 | 27:06.02 | 5:36.10 | 121952 | 147161
9 | 32:42.12 | 3:16.18 | 147162 | 161879
10 | 35:58.30 | 4:49.37 | 161880 | 183591
11 | 40:47.67 | 4:33.45 | 183592 | 204111
Track 1
Filename C:\Morelenbaum2_Sakamoto - A Day in New York (2003) [FLAC] {Sony Classical, SK-80018}\01 - Desafinado.wav
Pre-gap length 0:00:02.00
Peak level 99.8 %
Track quality 99.9 %
Test CRC FA1B023C
Copy CRC FA1B023C
Accurately ripped (confidence 15) [1F2158B5]
Copy OK
Track 2
Filename C:\Morelenbaum2_Sakamoto - A Day in New York (2003) [FLAC] {Sony Classical, SK-80018}\02 - Bim Bom.wav
Peak level 99.8 %
Track quality 100.0 %
Test CRC B9E1A351
Copy CRC B9E1A351
Accurately ripped (confidence 15) [A87A4C4C]
Copy OK
Track 3
Filename C:\Morelenbaum2_Sakamoto - A Day in New York (2003) [FLAC] {Sony Classical, SK-80018}\03 - Insensatez.wav
Pre-gap length 0:00:01.26
Peak level 99.8 %
Track quality 100.0 %
Test CRC EF6EABE1
Copy CRC EF6EABE1
Accurately ripped (confidence 15) [007B08B3]
Copy OK
Track 4
Filename C:\Morelenbaum2_Sakamoto - A Day in New York (2003) [FLAC] {Sony Classical, SK-80018}\04 - Coracao Vagabundo.wav
Pre-gap length 0:00:01.53
Peak level 99.8 %
Track quality 100.0 %
Test CRC A8DB1616
Copy CRC A8DB1616
Accurately ripped (confidence 15) [0C98453F]
Copy OK
Track 5
Filename C:\Morelenbaum2_Sakamoto - A Day in New York (2003) [FLAC] {Sony Classical, SK-80018}\05 - Falando de Amor.wav
Peak level 99.8 %
Track quality 100.0 %
Test CRC 86BF9222
Copy CRC 86BF9222
Accurately ripped (confidence 15) [62DFB3CD]
Copy OK
Track 6
Filename C:\Morelenbaum2_Sakamoto - A Day in New York (2003) [FLAC] {Sony Classical, SK-80018}\06 - Chora Coracao.wav
Pre-gap length 0:00:01.29
Peak level 99.8 %
Track quality 100.0 %
Test CRC C194C2E5
Copy CRC C194C2E5
Accurately ripped (confidence 14) [7CDC6330]
Copy OK
Track 7
Filename C:\Morelenbaum2_Sakamoto - A Day in New York (2003) [FLAC] {Sony Classical, SK-80018}\07 - Sabia.wav
Pre-gap length 0:00:01.69
Peak level 99.8 %
Track quality 100.0 %
Test CRC 066CEF8A
Copy CRC 066CEF8A
Accurately ripped (confidence 15) [B2587AE7]
Copy OK
Track 8
Filename C:\Morelenbaum2_Sakamoto - A Day in New York (2003) [FLAC] {Sony Classical, SK-80018}\08 - Tango (Versao em Portugues).wav
Pre-gap length 0:00:01.49
Peak level 99.8 %
Track quality 100.0 %
Test CRC EF4825B1
Copy CRC EF4825B1
Accurately ripped (confidence 15) [5028B5C4]
Copy OK
Track 9
Filename C:\Morelenbaum2_Sakamoto - A Day in New York (2003) [FLAC] {Sony Classical, SK-80018}\09 - Chega de Saudade.wav
Peak level 99.8 %
Track quality 99.9 %
Test CRC 9C871B92
Copy CRC 9C871B92
Accurately ripped (confidence 14) [CE002D0A]
Copy OK
Track 10
Filename C:\Morelenbaum2_Sakamoto - A Day in New York (2003) [FLAC] {Sony Classical, SK-80018}\10 - Samba do Aviao.wav
Peak level 99.8 %
Track quality 100.0 %
Test CRC 5A7C04C4
Copy CRC 5A7C04C4
Accurately ripped (confidence 15) [10D3F94E]
Copy OK
Track 11
Filename C:\Morelenbaum2_Sakamoto - A Day in New York (2003) [FLAC] {Sony Classical, SK-80018}\11 - Fotografia.wav
Pre-gap length 0:00:02.93
Peak level 99.8 %
Track quality 100.0 %
Test CRC 43122B84
Copy CRC 43122B84
Accurately ripped (confidence 15) [5CB2A4CF]
Copy OK
All tracks accurately ripped
No errors occurred
End of status report
По всем вопросам пишите личное сообщение пользователю M0p94ok.
06:29
180
Нет комментариев. Ваш будет первым!