Вы используете незарегистрированную версию компонента "Вкладки"!

Поиск

(Experimental Big Band/Avant-Garde Jazz) Vienna Art Orchestra - Concerto Piccolo - 1980, APE (image+.cue), lossless

(Experimental Big Band/Avant-Garde Jazz) Vienna Art Orchestra - Concerto Piccolo - 1980, APE (image+.cue), lossless
Треклист:
Vienna Art Orchestra - Concerto Piccolo
Жанр: Experimental Big Band/Avant-Garde Jazz
Год выпуска диска: 1980
Производитель диска: Switzerland
Аудио кодек: APE
Тип рипа: image+.cue
Битрейт аудио: lossless
Продолжительность: 64:33
Источник: NoNaMe
Трэклист:
1. Concerto Piccolo
2. Herzogstrasse 4
3. Jelly Roll, But Mingus Rolls Better
4. Variations on Am Hermineli Z'liab
5. Tango from Obango
Музыканты:
Mathias Ruegg — leader
Lauren Newton — vocals
Wolfgang Puschnig — flute, piccolo, alto sax
Harry Sokal — flute, soprano & tenor sax
Roman Schwaller — tenor sax
Herbert Joos — trumpet, flugelhorn, baritone horn, alphorn
Karl Fian — trumpet
Christian Radovan — trombone
Billy Fuchs — tuba
Stefan Bauer — vibraphone
Uli Scherer — piano
Jurgen Wuchner — bass
Joris Dudli — drums
Wolfgang Reisinger — percussion
 
Отчёт EAC
Exact Audio Copy V0.99 prebeta 5 from 4. May 2009
EAC extraction logfile from 12. January 2010, 22:06
Vienna Art Orchestra / Concerto Piccolo
Used drive : TSSTcorpDVD+-RW TS-U633A Adapter: 0 ID: 1
Read mode : Secure
Utilize accurate stream : Yes
Defeat audio cache : Yes
Make use of C2 pointers : No
Read offset correction : 6
Overread into Lead-In and Lead-Out : No
Fill up missing offset samples with silence : Yes
Delete leading and trailing silent blocks : No
Null samples used in CRC calculations : Yes
Used interface : Native Win32 interface for Win NT & 2000
Used output format : Internal WAV Routines
Sample format : 44.100 Hz; 16 Bit; Stereo
TOC of the extracted CD
Track | Start | Length | Start sector | End sector
---------------------------------------------------------
1 | 0:00.00 | 15:30.62 | 0 | 69811
2 | 15:30.62 | 11:13.00 | 69812 | 120286
3 | 26:43.62 | 12:50.38 | 120287 | 178074
4 | 39:34.25 | 12:26.37 | 178075 | 234061
5 | 52:00.62 | 12:33.13 | 234062 | 290549
Range status and errors
Selected range
Filename C:\_Arc\EAC_Out\Vienna Art Orchestra - Concerto Piccolo\Vienna Art Orchestra - Concerto Piccolo.wav
Peak level 100.0 %
Range quality 99.9 %
Copy CRC 84263A10
Copy OK
No errors occurred
AccurateRip summary
Track 1 accurately ripped (confidence 2) [6C73DB94]
Track 2 accurately ripped (confidence 2) [02BF6602]
Track 3 accurately ripped (confidence 2) [6915C191]
Track 4 accurately ripped (confidence 3) [D5503207]
Track 5 accurately ripped (confidence 3) [80419FC3]
All tracks accurately ripped
End of status report
По всем вопросам пишите личное сообщение пользователю M0p94ok.
18:38
144
Нет комментариев. Ваш будет первым!