Вы используете незарегистрированную версию компонента "Вкладки"!

Поиск

(experimental Big Band) Tetzepi - Crush - 2005, FLAC (tracks+.cue) lossless

Треклист:
Tetzepi - Crush
Жанр: experimental Big Band
Страна-производитель диска: Netherlands
Год издания диска: 2005
Издатель (лейбл): Trytone
Номер по каталогу: TT559-033
Страна: Netherlands
Аудио кодек: FLAC (*.flac)
Тип рипа: tracks+.cue
Битрейт аудио: lossless
Продолжительность: 69:74
Источник (релизер): собственный рип
Наличие сканов в содержимом раздачи: да
Треклист:
1. Crush
2. Tricofobia
3. OW 1
4. Cars Parking, Dogs Barking part 4
5. Dance Russe
6. OW 2
7. Mike`s Dance
8. Cars Parking, Dogs Barking part 1
9. Inferno
10. Chaplin`
11. Purgatorio
 
Лог создания рипа
Exact Audio Copy V0.99 prebeta 5 from 4. May 2009
EAC extraction logfile from 25. February 2011, 22:25
Tetzepi / Crush
Used drive : Optiarc DVD RW AD-7243S Adapter: 0 ID: 1
Read mode : Secure
Utilize accurate stream : Yes
Defeat audio cache : Yes
Make use of C2 pointers : No
Read offset correction : 48
Overread into Lead-In and Lead-Out : No
Fill up missing offset samples with silence : Yes
Delete leading and trailing silent blocks : No
Null samples used in CRC calculations : Yes
Used interface : Native Win32 interface for Win NT & 2000
Gap handling : Appended to previous track
Used output format : User Defined Encoder
Selected bitrate : 768 kBit/s
Quality : High
Add ID3 tag : No
Command line compressor : C:\Program Files\Exact Audio Copy\FLAC\FLAC.EXE
Additional command line options : -6 -V -T "ARTIST=%a" -T "TITLE=%t" -T "ALBUM=%g" -T "DATE=%y" -T "TRACKNUMBER=%n" -T "GENRE=%m" -T "COMMENT=%e" %s -o %d
TOC of the extracted CD
Track | Start | Length | Start sector | End sector
---------------------------------------------------------
1 | 0:00.00 | 12:03.16 | 0 | 54240
2 | 12:03.16 | 7:31.49 | 54241 | 88114
3 | 19:34.65 | 4:09.27 | 88115 | 106816
4 | 23:44.17 | 3:58.72 | 106817 | 124738
5 | 27:43.14 | 10:30.15 | 124739 | 172003
6 | 38:13.29 | 4:06.53 | 172004 | 190506
7 | 42:20.07 | 7:35.34 | 190507 | 224665
8 | 49:55.41 | 3:59.21 | 224666 | 242611
9 | 53:54.62 | 10:19.48 | 242612 | 289084
10 | 64:14.35 | 1:22.52 | 289085 | 295286
11 | 65:37.12 | 9:03.46 | 295287 | 336057
Track 1
Filename C:\Documents and Settings\S\Мои документы\Torrent раздача\01.Tetzepi-Crush.wav
Pre-gap length 0:00:02.00
Peak level 98.7 %
Track quality 99.9 %
Test CRC 133B499D
Copy CRC 133B499D
Track not present in AccurateRip database
Copy OK
Track 2
Filename C:\Documents and Settings\S\Мои документы\Torrent раздача\02.Tetzepi-Tricofobia.wav
Peak level 98.7 %
Track quality 100.0 %
Test CRC 394A40A2
Copy CRC 394A40A2
Track not present in AccurateRip database
Copy OK
Track 3
Filename C:\Documents and Settings\S\Мои документы\Torrent раздача\03.Tetzepi-OW 1.wav
Peak level 98.7 %
Track quality 99.9 %
Test CRC 09780EF0
Copy CRC 09780EF0
Track not present in AccurateRip database
Copy OK
Track 4
Filename C:\Documents and Settings\S\Мои документы\Torrent раздача\04.Tetzepi-Cars Parking, Dogs Barking part 4.wav
Peak level 98.7 %
Track quality 100.0 %
Test CRC 9EF74A7B
Copy CRC 9EF74A7B
Track not present in AccurateRip database
Copy OK
Track 5
Filename C:\Documents and Settings\S\Мои документы\Torrent раздача\05.Tetzepi-Danse Russe.wav
Peak level 98.7 %
Track quality 100.0 %
Test CRC 0AC1FE1C
Copy CRC 0AC1FE1C
Track not present in AccurateRip database
Copy OK
Track 6
Filename C:\Documents and Settings\S\Мои документы\Torrent раздача\06.Tetzepi-OW 2.wav
Peak level 65.2 %
Track quality 99.9 %
Test CRC 5E6E5109
Copy CRC 5E6E5109
Track not present in AccurateRip database
Copy OK
Track 7
Filename C:\Documents and Settings\S\Мои документы\Torrent раздача\07.Tetzepi-Mike's Dance.wav
Peak level 98.7 %
Track quality 100.0 %
Test CRC 5BCEF498
Copy CRC 5BCEF498
Track not present in AccurateRip database
Copy OK
Track 8
Filename C:\Documents and Settings\S\Мои документы\Torrent раздача\08.Tetzepi-Cars Parking, Dogs Barking part 1.wav
Peak level 35.8 %
Track quality 100.0 %
Test CRC 33879561
Copy CRC 33879561
Track not present in AccurateRip database
Copy OK
Track 9
Filename C:\Documents and Settings\S\Мои документы\Torrent раздача\09.Tetzepi-Inferne.wav
Peak level 98.7 %
Track quality 99.9 %
Test CRC B9131933
Copy CRC B9131933
Track not present in AccurateRip database
Copy OK
Track 10
Filename C:\Documents and Settings\S\Мои документы\Torrent раздача\10.Tetzepi-Chapin'.wav
Peak level 90.4 %
Track quality 99.8 %
Test CRC 06A38AA7
Copy CRC 06A38AA7
Track not present in AccurateRip database
Copy OK
Track 11
Filename C:\Documents and Settings\S\Мои документы\Torrent раздача\11.Tetzepi-Purgatorio.wav
Peak level 98.7 %
Track quality 99.9 %
Test CRC A6E4D6A8
Copy CRC A6E4D6A8
Track not present in AccurateRip database
Copy OK
None of the tracks are present in the AccurateRip database
No errors occurred
End of status report
 
Содержание индексной карты (.CUE)
REM GENRE Jazz+Funk
REM DATE 2005
REM DISCID B411800B
REM COMMENT "ExactAudioCopy v0.99pb5"
PERFORMER "Tetzepi"
TITLE "Crush"
FILE "01.Tetzepi-Crush.wav" WAVE
TRACK 01 AUDIO
TITLE "Crush"
PERFORMER "Tetzepi"
INDEX 01 00:00:00
FILE "02.Tetzepi-Tricofobia.wav" WAVE
TRACK 02 AUDIO
TITLE "Tricofobia"
PERFORMER "Tetzepi"
INDEX 01 00:00:00
FILE "03.Tetzepi-OW 1.wav" WAVE
TRACK 03 AUDIO
TITLE "OW 1"
PERFORMER "Tetzepi"
INDEX 01 00:00:00
FILE "04.Tetzepi-Cars Parking, Dogs Barking part 4.wav" WAVE
TRACK 04 AUDIO
TITLE "Cars Parking, Dogs Barking part 4"
PERFORMER "Tetzepi"
INDEX 01 00:00:00
FILE "05.Tetzepi-Danse Russe.wav" WAVE
TRACK 05 AUDIO
TITLE "Danse Russe"
PERFORMER "Tetzepi"
INDEX 01 00:00:00
FILE "06.Tetzepi-OW 2.wav" WAVE
TRACK 06 AUDIO
TITLE "OW 2"
PERFORMER "Tetzepi"
INDEX 01 00:00:00
FILE "07.Tetzepi-Mike's Dance.wav" WAVE
TRACK 07 AUDIO
TITLE "Mike's Dance"
PERFORMER "Tetzepi"
INDEX 01 00:00:00
FILE "08.Tetzepi-Cars Parking, Dogs Barking part 1.wav" WAVE
TRACK 08 AUDIO
TITLE "Cars Parking, Dogs Barking part 1"
PERFORMER "Tetzepi"
INDEX 01 00:00:00
FILE "09.Tetzepi-Inferne.wav" WAVE
TRACK 09 AUDIO
TITLE "Inferne"
PERFORMER "Tetzepi"
INDEX 01 00:00:00
FILE "10.Tetzepi-Chapin'.wav" WAVE
TRACK 10 AUDIO
TITLE "Chapin'"
PERFORMER "Tetzepi"
INDEX 01 00:00:00
FILE "11.Tetzepi-Purgatorio.wav" WAVE
TRACK 11 AUDIO
TITLE "Purgatorio"
PERFORMER "Tetzepi"
INDEX 01 00:00:00
 
Состав
Hans Leeuw - trompet
Esmee Olthuis - saxophone, blockophone
Bastiaan Woltjer - trombone
Alex Schappert - basstrombone, tuba
Dominique Brackeva - trombone
George Pancraz - trompet
Jimmy Sernesky - trompet
Lars Dietrich - saxophone, clarinet, flute
Renco Keijzer - saxphone, clarinet
Onno van Swigchem - saxophone
Valdi Kolli - double bass
Nout IngenHousz - drums
Stevko Busch - piano
Raphael Vanoli - guitar
Wouter Hakhoff - director
Другие раздачи
http://rutracker.org/forum/search.php?uid=17163016
Any questions -> support@pro-jazz.com. По всем вопросам пишите -> support@pro-jazz.com
10:01
196
Нет комментариев. Ваш будет первым!