Поиск

(Ethno Jazz) Rao Trio - Sin Titulo - 2004, APE (image+.cue), lossless

(Ethno Jazz) Rao Trio - Sin Titulo - 2004, APE (image+.cue), lossless
Треклист:
Rao Trio / Sin Titulo
Жанр: Ethno Jazz
Страна-производитель диска: Spain
Год издания диска: 2004
Издатель (лейбл): nube
Страна: Spain
Аудиокодек: APE (*.ape)
Тип рипа: image+.cue
Битрейт аудио: lossless
Продолжительность: 46'42"
Источник (релизер): Мои рип, мой диск
Наличие сканов в содержимом раздачи: нет
Треклист:
1. El famoso grupo italiano Fundacion Tony Manero.
(G. Diaz) 3:14
2. Libertango.
(Astor Piazzola) 6:51
3. Macktub.
(C. Diez) 2:29
4. Repecho.
(G. Diaz) 4:00
5. Pechotango.
(G. Diaz) 4:36
6. El Medallon.
(G. Diaz) 4:26
7. Bule-ria de Arousa.
(C. Diez) 6:42
8. Entradilla.
(tradicional, Rao Trio) 4:58
9. Aira.
(tradicional, Rao Trio) 9:06
 
Лог создания рипа
Exact Audio Copy V0.99 prebeta 4 from 23. January 2008
Отчёт EAC об извлечении, выполненном 29. ноября 2011, 1:12
Rao Trio / Sin Titulo
Дисковод: TSSTcorpCDRWDVD TSL462D Adapter: 2 ID: 0
Режим чтения : Достоверность
Использование точного потока : Да
Отключение кэша аудио : Да
Использование указателей C2 : Нет
Коррекция смещения при чтении : 6
Способность читать области Lead-in и Lead-out : Нет
Заполнение пропущенных сэмплов тишиной : Да
Удаление блоков с тишиной в начале и конце : Нет
При вычислениях CRC использовались нулевые сэмплы : Да
Интерфейс : Встроенный Win32-интерфейс для Win NT/2000
Выходной формат : Внутренние WAV-операции
Формат сэмплов : 44.100 Гц; 16 бит; стерео
TOC извлечённого CD
Трек | Старт | Длительность | Начальный сектор | Конечный сектор
---------------------------------------------------------------------
1 | 0:00.00 | 3:16.12 | 0 | 14711
2 | 3:16.12 | 6:51.56 | 14712 | 45592
3 | 10:07.68 | 2:29.34 | 45593 | 56801
4 | 12:37.27 | 4:00.60 | 56802 | 74861
5 | 16:38.12 | 4:37.13 | 74862 | 95649
6 | 21:15.25 | 4:27.36 | 95650 | 115710
7 | 25:42.61 | 6:43.10 | 115711 | 145945
8 | 32:25.71 | 4:59.33 | 145946 | 168403
9 | 37:25.29 | 9:06.29 | 168404 | 209382
10 | 49:03.58 | 0:12.49 | 220783 | 221731
Характеристики диапазона извлечения и сообщения об ошибках
Выбранный диапазон
Имя файла C:\Music\Rao Trio_Sin Titulo_2004\Rao Trio - Sin Titulo.wav
Пиковый уровень 100.0 %
Качество диапазона 100.0 %
CRC теста 0CA17910
CRC копии 0CA17910
Копирование... OK
Ошибок не произошло
AccurateRip: сводка
Трек 1 нет в базе данных
Трек 2 нет в базе данных
Трек 3 нет в базе данных
Трек 4 нет в базе данных
Трек 5 нет в базе данных
Трек 6 нет в базе данных
Трек 7 нет в базе данных
Трек 8 нет в базе данных
Трек 9 нет в базе данных
Ни одного трека нет в базе AccurateRip
Конец отчёта
 
Содержание индексной карты (.CUE)
REM DATE 2004
REM DISCID 900B8C0A
REM COMMENT "ExactAudioCopy v0.99pb4"
PERFORMER "Rao Trio"
TITLE "Sin Titulo"
FILE "Rao Trio - Sin Titulo.wav" WAVE
TRACK 01 AUDIO
TITLE "El famoso grupo italiano Fundacion Tony Manero"
PERFORMER "Rao Trio"
INDEX 01 00:00:00
TRACK 02 AUDIO
TITLE "Libertango"
PERFORMER "Rao Trio"
INDEX 00 03:14:12
INDEX 01 03:16:12
TRACK 03 AUDIO
TITLE "Macktub"
PERFORMER "Rao Trio"
INDEX 00 10:07:22
INDEX 01 10:07:68
TRACK 04 AUDIO
TITLE "Repecho"
PERFORMER "Rao Trio"
INDEX 00 12:36:48
INDEX 01 12:37:27
TRACK 05 AUDIO
TITLE "Pechotango"
PERFORMER "Rao Trio"
INDEX 00 16:37:38
INDEX 01 16:38:12
TRACK 06 AUDIO
TITLE "El Medalion"
PERFORMER "Rao Trio"
INDEX 00 21:14:60
INDEX 01 21:15:25
TRACK 07 AUDIO
TITLE "Bule - ria de Arousa"
PERFORMER "Rao Trio"
INDEX 00 25:42:16
INDEX 01 25:42:61
TRACK 08 AUDIO
TITLE "Entradilla"
PERFORMER "Rao Trio"
INDEX 00 32:25:32
INDEX 01 32:25:71
TRACK 09 AUDIO
TITLE "Aira"
PERFORMER "Rao Trio"
INDEX 00 37:24:55
INDEX 01 37:25:29
 
Состав
Cesar Diez - bass and fretless bass
Diego Martin - drums and cajon
German Diaz - hurdy-gurdy
Special guest
Gorka Hermosa - accordion
01:09
291
Нет комментариев. Ваш будет первым!